  0
SECTION
  2
HEADER
  9
$ACADVER
  1
AC1018
  9
$ACADMAINTVER
 70
     0
  9
$DWGCODEPAGE
  3
ANSI_936
  9
$INSBASE
 10
0.0
 20
0.0
 30
0.0
  9
$EXTMIN
 10
379.0587220008388
 20
17.46545021908355
 30
-0.0015258207003583
  9
$EXTMAX
 10
416.1024058532293
 20
195.5430341122762
 30
0.0000000349246037
  9
$LIMMIN
 10
0.0
 20
0.0
  9
$LIMMAX
 10
12.0
 20
9.0
  9
$ORTHOMODE
 70
     1
  9
$REGENMODE
 70
     1
  9
$FILLMODE
 70
     1
  9
$QTEXTMODE
 70
     0
  9
$MIRRTEXT
 70
     0
  9
$LTSCALE
 40
1.0
  9
$ATTMODE
 70
     1
  9
$TEXTSIZE
 40
0.2
  9
$TRACEWID
 40
0.05
  9
$TEXTSTYLE
  7
Standard
  9
$CLAYER
  8
标注
  9
$CELTYPE
  6
ByLayer
  9
$CECOLOR
 62
   256
  9
$CELTSCALE
 40
1.0
  9
$DISPSILH
 70
     0
  9
$DIMSCALE
 40
1.0
  9
$DIMASZ
 40
0.65
  9
$DIMEXO
 40
0.88
  9
$DIMDLI
 40
0.015
  9
$DIMRND
 40
0.0
  9
$DIMDLE
 40
0.0
  9
$DIMEXE
 40
0.32
  9
$DIMTP
 40
0.0
  9
$DIMTM
 40
0.0
  9
$DIMTXT
 40
0.65
  9
$DIMCEN
 40
0.09
  9
$DIMTSZ
 40
0.0
  9
$DIMTOL
 70
     0
  9
$DIMLIM
 70
     0
  9
$DIMTIH
 70
     0
  9
$DIMTOH
 70
     0
  9
$DIMSE1
 70
     0
  9
$DIMSE2
 70
     0
  9
$DIMTAD
 70
     0
  9
$DIMZIN
 70
     8
  9
$DIMBLK
  1

  9
$DIMASO
 70
     1
  9
$DIMSHO
 70
     1
  9
$DIMPOST
  1
"
  9
$DIMAPOST
  1
"
  9
$DIMALT
 70
     0
  9
$DIMALTD
 70
     1
  9
$DIMALTF
 40
0.03937
  9
$DIMLFAC
 40
1.0
  9
$DIMTOFL
 70
     1
  9
$DIMTVP
 40
0.0
  9
$DIMTIX
 70
     0
  9
$DIMSOXD
 70
     0
  9
$DIMSAH
 70
     0
  9
$DIMBLK1
  1

  9
$DIMBLK2
  1

  9
$DIMSTYLE
  2
副本Standard
  9
$DIMCLRD
 70
   256
  9
$DIMCLRE
 70
   256
  9
$DIMCLRT
 70
   256
  9
$DIMTFAC
 40
1.0
  9
$DIMGAP
 40
0.2
  9
$DIMJUST
 70
     0
  9
$DIMSD1
 70
     0
  9
$DIMSD2
 70
     0
  9
$DIMTOLJ
 70
     1
  9
$DIMTZIN
 70
     0
  9
$DIMALTZ
 70
     0
  9
$DIMALTTZ
 70
     0
  9
$DIMUPT
 70
     0
  9
$DIMDEC
 70
     3
  9
$DIMTDEC
 70
     3
  9
$DIMALTU
 70
     2
  9
$DIMALTTD
 70
     1
  9
$DIMTXSTY
  7
Standard
  9
$DIMAUNIT
 70
     0
  9
$DIMADEC
 70
     1
  9
$DIMALTRND
 40
0.0
  9
$DIMAZIN
 70
     2
  9
$DIMDSEP
 70
    44
  9
$DIMATFIT
 70
     3
  9
$DIMFRAC
 70
     2
  9
$DIMLDRBLK
  1

  9
$DIMLUNIT
 70
     5
  9
$DIMLWD
 70
    -2
  9
$DIMLWE
 70
    -2
  9
$DIMTMOVE
 70
     0
  9
$LUNITS
 70
     2
  9
$LUPREC
 70
     4
  9
$SKETCHINC
 40
0.1
  9
$FILLETRAD
 40
0.75
  9
$AUNITS
 70
     0
  9
$AUPREC
 70
     0
  9
$MENU
  1
.
  9
$ELEVATION
 40
0.0
  9
$PELEVATION
 40
0.0
  9
$THICKNESS
 40
0.0
  9
$LIMCHECK
 70
     0
  9
$CHAMFERA
 40
0.0
  9
$CHAMFERB
 40
0.0
  9
$CHAMFERC
 40
0.0
  9
$CHAMFERD
 40
0.0
  9
$SKPOLY
 70
     0
  9
$TDCREATE
 40
2455434.724808658
  9
$TDUCREATE
 40
2455434.391475324
  9
$TDUPDATE
 40
2455820.922712673
  9
$TDUUPDATE
 40
2455820.589379341
  9
$TDINDWG
 40
0.0672009028
  9
$TDUSRTIMER
 40
0.0671970949
  9
$USRTIMER
 70
     1
  9
$ANGBASE
 50
0.0
  9
$ANGDIR
 70
     0
  9
$PDMODE
 70
     0
  9
$PDSIZE
 40
0.0
  9
$PLINEWID
 40
0.0
  9
$SPLFRAME
 70
     0
  9
$SPLINETYPE
 70
     6
  9
$SPLINESEGS
 70
     8
  9
$HANDSEED
  5
15DE
  9
$SURFTAB1
 70
     6
  9
$SURFTAB2
 70
     6
  9
$SURFTYPE
 70
     6
  9
$SURFU
 70
     6
  9
$SURFV
 70
     6
  9
$UCSBASE
  2

  9
$UCSNAME
  2

  9
$UCSORG
 10
0.0
 20
0.0
 30
0.0
  9
$UCSXDIR
 10
1.0
 20
0.0
 30
0.0
  9
$UCSYDIR
 10
0.0
 20
1.0
 30
0.0
  9
$UCSORTHOREF
  2

  9
$UCSORTHOVIEW
 70
     0
  9
$UCSORGTOP
 10
0.0
 20
0.0
 30
0.0
  9
$UCSORGBOTTOM
 10
0.0
 20
0.0
 30
0.0
  9
$UCSORGLEFT
 10
0.0
 20
0.0
 30
0.0
  9
$UCSORGRIGHT
 10
0.0
 20
0.0
 30
0.0
  9
$UCSORGFRONT
 10
0.0
 20
0.0
 30
0.0
  9
$UCSORGBACK
 10
0.0
 20
0.0
 30
0.0
  9
$PUCSBASE
  2

  9
$PUCSNAME
  2

  9
$PUCSORG
 10
0.0
 20
0.0
 30
0.0
  9
$PUCSXDIR
 10
1.0
 20
0.0
 30
0.0
  9
$PUCSYDIR
 10
0.0
 20
1.0
 30
0.0
  9
$PUCSORTHOREF
  2

  9
$PUCSORTHOVIEW
 70
     0
  9
$PUCSORGTOP
 10
0.0
 20
0.0
 30
0.0
  9
$PUCSORGBOTTOM
 10
0.0
 20
0.0
 30
0.0
  9
$PUCSORGLEFT
 10
0.0
 20
0.0
 30
0.0
  9
$PUCSORGRIGHT
 10
0.0
 20
0.0
 30
0.0
  9
$PUCSORGFRONT
 10
0.0
 20
0.0
 30
0.0
  9
$PUCSORGBACK
 10
0.0
 20
0.0
 30
0.0
  9
$USERI1
 70
     0
  9
$USERI2
 70
     0
  9
$USERI3
 70
     0
  9
$USERI4
 70
     0
  9
$USERI5
 70
     0
  9
$USERR1
 40
0.0
  9
$USERR2
 40
0.0
  9
$USERR3
 40
0.0
  9
$USERR4
 40
0.0
  9
$USERR5
 40
0.0
  9
$WORLDVIEW
 70
     1
  9
$SHADEDGE
 70
     3
  9
$SHADEDIF
 70
    70
  9
$TILEMODE
 70
     1
  9
$MAXACTVP
 70
    64
  9
$PINSBASE
 10
0.0
 20
0.0
 30
0.0
  9
$PLIMCHECK
 70
     0
  9
$PEXTMIN
 10
1.000000000000000E+20
 20
1.000000000000000E+20
 30
1.000000000000000E+20
  9
$PEXTMAX
 10
-1.000000000000000E+20
 20
-1.000000000000000E+20
 30
-1.000000000000000E+20
  9
$PLIMMIN
 10
0.0
 20
0.0
  9
$PLIMMAX
 10
12.0
 20
9.0
  9
$UNITMODE
 70
     0
  9
$VISRETAIN
 70
     1
  9
$PLINEGEN
 70
     0
  9
$PSLTSCALE
 70
     1
  9
$TREEDEPTH
 70
  3020
  9
$CMLSTYLE
  2
Standard
  9
$CMLJUST
 70
     0
  9
$CMLSCALE
 40
1.0
  9
$PROXYGRAPHICS
 70
     1
  9
$MEASUREMENT
 70
     0
  9
$CELWEIGHT
370
    -1
  9
$ENDCAPS
280
     0
  9
$JOINSTYLE
280
     0
  9
$LWDISPLAY
290
     0
  9
$INSUNITS
 70
     1
  9
$HYPERLINKBASE
  1

  9
$STYLESHEET
  1
acad.ctb
  9
$XEDIT
290
     1
  9
$CEPSNTYPE
380
     0
  9
$PSTYLEMODE
290
     1
  9
$FINGERPRINTGUID
  2
{F62C8C00-7996-402C-BAA4-24CA714BE5F0}
  9
$VERSIONGUID
  2
{88218D9E-0EFA-424E-B2EC-EB0EFEA7B540}
  9
$EXTNAMES
290
     1
  9
$PSVPSCALE
 40
0.0
  9
$OLESTARTUP
290
     0
  9
$SORTENTS
280
   127
  9
$INDEXCTL
280
     0
  9
$HIDETEXT
280
     1
  9
$XCLIPFRAME
290
     0
  9
$HALOGAP
280
     0
  9
$OBSCOLOR
 70
   257
  9
$OBSLTYPE
280
     0
  9
$INTERSECTIONDISPLAY
280
     0
  9
$INTERSECTIONCOLOR
 70
   257
  9
$DIMASSOC
280
     2
  9
$PROJECTNAME
  1

  0
ENDSEC
  0
SECTION
  2
CLASSES
  0
CLASS
  1
ACDBDICTIONARYWDFLT
  2
AcDbDictionaryWithDefault
  3
ObjectDBX Classes
 90
        0
 91
        1
280
     0
281
     0
  0
CLASS
  1
DIMASSOC
  2
AcDbDimAssoc
  3
"AcDbDimAssoc|Product Desc:     AcDim ARX App For Dimension|Company:          Autodesk, Inc.|WEB Address:      www.autodesk.com"
 90
        0
 91
       25
280
     0
281
     0
  0
CLASS
  1
SORTENTSTABLE
  2
AcDbSortentsTable
  3
ObjectDBX Classes
 90
        0
 91
        1
280
     0
281
     0
  0
ENDSEC
  0
SECTION
  2
TABLES
  0
TABLE
  2
VPORT
  5
8
330
0
100
AcDbSymbolTable
 70
    28
  0
VPORT
  5
15DD
330
8
100
AcDbSymbolTableRecord
100
AcDbViewportTableRecord
  2
*Active
 70
     0
 10
0.0
 20
0.0
 11
1.0
 21
1.0
 12
425.1719756019425
 22
103.2471222388438
 13
0.0
 23
0.0
 14
0.5
 24
0.5
 15
0.5
 25
0.5
 16
0.0
 26
0.0
 36
1.0
 17
0.0
 27
0.0
 37
0.0
 40
275.645369212865
 41
1.518855656697009
 42
50.0
 43
0.0
 44
0.0
 50
0.0
 51
0.0
 71
     0
 72
  1000
 73
     1
 74
     3
 75
     0
 76
     0
 77
     0
 78
     0
281
     0
 65
     1
110
0.0
120
0.0
130
0.0
111
1.0
121
0.0
131
0.0
112
0.0
122
1.0
132
0.0
 79
     0
146
0.0
  0
ENDTAB
  0
TABLE
  2
LTYPE
  5
5
330
0
100
AcDbSymbolTable
 70
     3
  0
LTYPE
  5
14
330
5
100
AcDbSymbolTableRecord
100
AcDbLinetypeTableRecord
  2
ByBlock
 70
     0
  3

 72
    65
 73
     0
 40
0.0
  0
LTYPE
  5
15
330
5
100
AcDbSymbolTableRecord
100
AcDbLinetypeTableRecord
  2
ByLayer
 70
     0
  3

 72
    65
 73
     0
 40
0.0
  0
LTYPE
  5
16
330
5
100
AcDbSymbolTableRecord
100
AcDbLinetypeTableRecord
  2
Continuous
 70
     0
  3
Solid line
 72
    65
 73
     0
 40
0.0
  0
LTYPE
  5
B7
330
5
100
AcDbSymbolTableRecord
100
AcDbLinetypeTableRecord
  2
CENTER2
 70
     0
  3
Center (.5x) ___ _ ___ _ ___ _ ___ _ ___ _ ___
 72
    65
 73
     4
 40
28.575
 49
19.05
 74
     0
 49
-3.174999999999998
 74
     0
 49
3.174999999999998
 74
     0
 49
-3.174999999999998
 74
     0
  0
LTYPE
  5
B8
330
5
100
AcDbSymbolTableRecord
100
AcDbLinetypeTableRecord
  2
HIDDEN2
 70
     0
  3
Hidden (.5x) _ _ _ _ _ _ _ _ _ _ _ _ _ _ _ _ _
 72
    65
 73
     2
 40
4.762499999999998
 49
3.174999999999998
 74
     0
 49
-1.587499999999999
 74
     0
  0
ENDTAB
  0
TABLE
  2
LAYER
  5
2
102
{ACAD_XDICTIONARY
360
C6
102
}
330
0
100
AcDbSymbolTable
 70
     6
  0
LAYER
  5
10
330
2
100
AcDbSymbolTableRecord
100
AcDbLayerTableRecord
  2
0
 70
     0
 62
     7
  6
Continuous
370
    -3
390
F
  0
LAYER
  5
B9
330
2
100
AcDbSymbolTableRecord
100
AcDbLayerTableRecord
  2
中心线
 70
     0
 62
     1
  6
CENTER2
370
    -3
390
F
  0
LAYER
  5
BA
330
2
100
AcDbSymbolTableRecord
100
AcDbLayerTableRecord
  2
虚线
 70
     0
 62
     4
  6
HIDDEN2
370
    -3
390
F
  0
LAYER
  5
BB
330
2
100
AcDbSymbolTableRecord
100
AcDbLayerTableRecord
  2
Defpoints
 70
     0
 62
     7
  6
Continuous
290
     0
370
    -3
390
F
  0
LAYER
  5
BC
330
2
100
AcDbSymbolTableRecord
100
AcDbLayerTableRecord
  2
标注
 70
     0
 62
    80
  6
Continuous
370
     5
390
F
1001
AcAecLayerStandard
1000

1000

  0
LAYER
  5
BD
330
2
100
AcDbSymbolTableRecord
100
AcDbLayerTableRecord
  2
截面层
 70
     0
 62
     6
  6
Continuous
370
    50
390
F
  0
ENDTAB
  0
TABLE
  2
STYLE
  5
3
330
0
100
AcDbSymbolTable
 70
     1
  0
STYLE
  5
11
330
3
100
AcDbSymbolTableRecord
100
AcDbTextStyleTableRecord
  2
Standard
 70
     0
 40
0.0
 41
1.0
 50
0.0
 71
     0
 42
0.2
  3
txt
  4

  0
ENDTAB
  0
TABLE
  2
VIEW
  5
6
330
0
100
AcDbSymbolTable
 70
     0
  0
ENDTAB
  0
TABLE
  2
UCS
  5
7
330
0
100
AcDbSymbolTable
 70
     0
  0
ENDTAB
  0
TABLE
  2
APPID
  5
9
330
0
100
AcDbSymbolTable
 70
     6
  0
APPID
  5
12
330
9
100
AcDbSymbolTableRecord
100
AcDbRegAppTableRecord
  2
ACAD
 70
     0
  0
APPID
  5
C1
330
9
100
AcDbSymbolTableRecord
100
AcDbRegAppTableRecord
  2
AcAecLayerStandard
 70
     0
  0
APPID
  5
C2
330
9
100
AcDbSymbolTableRecord
100
AcDbRegAppTableRecord
  2
ACAD_DSTYLE_DIMEXT_LENGTH
 70
     0
  0
APPID
  5
C3
330
9
100
AcDbSymbolTableRecord
100
AcDbRegAppTableRecord
  2
ACAD_DSTYLE_DIMEXT_ENABLED
 70
     0
  0
APPID
  5
C4
330
9
100
AcDbSymbolTableRecord
100
AcDbRegAppTableRecord
  2
ACAD_DSTYLE_DIMJOGGED_JOGANGLE_SYMBOL
 70
     0
  0
APPID
  5
C5
330
9
100
AcDbSymbolTableRecord
100
AcDbRegAppTableRecord
  2
ACAD_DSTYLE_DIMARC_LENGTH_SYMBOL
 70
     0
  0
ENDTAB
  0
TABLE
  2
DIMSTYLE
  5
A
330
0
100
AcDbSymbolTable
 70
     4
100
AcDbDimStyleTable
 71
     2
340
C0
340
29
  0
DIMSTYLE
105
29
330
A
100
AcDbSymbolTableRecord
100
AcDbDimStyleTableRecord
  2
Standard
 70
     0
340
11
  0
DIMSTYLE
105
BE
330
A
100
AcDbSymbolTableRecord
100
AcDbDimStyleTableRecord
  2
ISO-25
 70
     0
 41
18.0
 42
0.0
 43
3.75
 44
3.0
 73
     0
 74
     0
 77
     1
 78
     8
 79
     2
140
18.0
141
2.5
143
0.03937007874016
147
4.0
171
     3
172
     1
176
     6
177
     6
271
     1
272
     1
274
     3
278
    44
283
     0
284
     8
340
11
371
    15
372
    15
  0
DIMSTYLE
105
BF
330
A
100
AcDbSymbolTableRecord
100
AcDbDimStyleTableRecord
  2
XIAO
 70
     0
 41
3.5
 42
3.0
 43
1.0
 44
1.0
 73
     0
 74
     0
 77
     1
 78
     8
140
4.0
141
1.5
143
0.03937007874016
147
1.0
171
     3
172
     1
179
     1
271
     1
272
     1
274
     3
278
    44
283
     0
284
     8
340
11
  0
DIMSTYLE
105
C0
102
{ACAD_REACTORS
330
1387
330
138A
330
138D
330
1390
330
1393
330
14BE
330
14AE
102
}
330
A
100
AcDbSymbolTableRecord
100
AcDbDimStyleTableRecord
  2
副本Standard
 70
     0
  3
"
  4
"
 41
0.65
 42
0.88
 43
0.015
 44
0.32
 73
     0
 74
     0
 78
     8
 79
     2
140
0.65
143
0.03937
147
0.2
171
     1
172
     1
176
   256
177
   256
178
   256
179
     1
271
     3
272
     3
274
     1
276
     2
277
     5
278
    44
340
11
  0
ENDTAB
  0
TABLE
  2
BLOCK_RECORD
  5
1
330
0
100
AcDbSymbolTable
 70
   143
  0
BLOCK_RECORD
  5
21
330
1
100
AcDbSymbolTableRecord
100
AcDbBlockTableRecord
  2
*Model_Space
340
24
  0
BLOCK_RECORD
  5
1D
330
1
100
AcDbSymbolTableRecord
100
AcDbBlockTableRecord
  2
*Paper_Space
340
20
  0
BLOCK_RECORD
  5
25
330
1
100
AcDbSymbolTableRecord
100
AcDbBlockTableRecord
  2
*Paper_Space0
340
28
  0
BLOCK_RECORD
  5
1FB
330
1
100
AcDbSymbolTableRecord
100
AcDbBlockTableRecord
  2
*D1
340
0
  0
BLOCK_RECORD
  5
208
330
1
100
AcDbSymbolTableRecord
100
AcDbBlockTableRecord
  2
*D2
340
0
  0
BLOCK_RECORD
  5
216
330
1
100
AcDbSymbolTableRecord
100
AcDbBlockTableRecord
  2
*D3
340
0
  0
BLOCK_RECORD
  5
224
330
1
100
AcDbSymbolTableRecord
100
AcDbBlockTableRecord
  2
*D4
340
0
  0
BLOCK_RECORD
  5
231
330
1
100
AcDbSymbolTableRecord
100
AcDbBlockTableRecord
  2
*D5
340
0
  0
BLOCK_RECORD
  5
23E
330
1
100
AcDbSymbolTableRecord
100
AcDbBlockTableRecord
  2
*D6
340
0
  0
BLOCK_RECORD
  5
26B
330
1
100
AcDbSymbolTableRecord
100
AcDbBlockTableRecord
  2
*D7
340
0
  0
BLOCK_RECORD
  5
28C
330
1
100
AcDbSymbolTableRecord
100
AcDbBlockTableRecord
  2
*D8
340
0
  0
BLOCK_RECORD
  5
2A3
330
1
100
AcDbSymbolTableRecord
100
AcDbBlockTableRecord
  2
*D9
340
0
  0
BLOCK_RECORD
  5
2AE
330
1
100
AcDbSymbolTableRecord
100
AcDbBlockTableRecord
  2
*D10
340
0
  0
BLOCK_RECORD
  5
4A9
330
1
100
AcDbSymbolTableRecord
100
AcDbBlockTableRecord
  2
*D11
340
0
  0
BLOCK_RECORD
  5
4F6
330
1
100
AcDbSymbolTableRecord
100
AcDbBlockTableRecord
  2
*D12
340
0
  0
BLOCK_RECORD
  5
503
330
1
100
AcDbSymbolTableRecord
100
AcDbBlockTableRecord
  2
*D13
340
0
  0
BLOCK_RECORD
  5
510
330
1
100
AcDbSymbolTableRecord
100
AcDbBlockTableRecord
  2
*D14
340
0
  0
BLOCK_RECORD
  5
51D
330
1
100
AcDbSymbolTableRecord
100
AcDbBlockTableRecord
  2
*D15
340
0
  0
BLOCK_RECORD
  5
52A
330
1
100
AcDbSymbolTableRecord
100
AcDbBlockTableRecord
  2
*D16
340
0
  0
BLOCK_RECORD
  5
537
330
1
100
AcDbSymbolTableRecord
100
AcDbBlockTableRecord
  2
*D17
340
0
  0
BLOCK_RECORD
  5
544
330
1
100
AcDbSymbolTableRecord
100
AcDbBlockTableRecord
  2
*D18
340
0
  0
BLOCK_RECORD
  5
551
330
1
100
AcDbSymbolTableRecord
100
AcDbBlockTableRecord
  2
*D19
340
0
  0
BLOCK_RECORD
  5
55E
330
1
100
AcDbSymbolTableRecord
100
AcDbBlockTableRecord
  2
*D20
340
0
  0
BLOCK_RECORD
  5
56B
330
1
100
AcDbSymbolTableRecord
100
AcDbBlockTableRecord
  2
*D21
340
0
  0
BLOCK_RECORD
  5
573
330
1
100
AcDbSymbolTableRecord
100
AcDbBlockTableRecord
  2
*D22
340
0
  0
BLOCK_RECORD
  5
57B
330
1
100
AcDbSymbolTableRecord
100
AcDbBlockTableRecord
  2
*D23
340
0
  0
BLOCK_RECORD
  5
588
330
1
100
AcDbSymbolTableRecord
100
AcDbBlockTableRecord
  2
*D24
340
0
  0
BLOCK_RECORD
  5
595
330
1
100
AcDbSymbolTableRecord
100
AcDbBlockTableRecord
  2
*D25
340
0
  0
BLOCK_RECORD
  5
5A2
330
1
100
AcDbSymbolTableRecord
100
AcDbBlockTableRecord
  2
*D26
340
0
  0
BLOCK_RECORD
  5
5AF
330
1
100
AcDbSymbolTableRecord
100
AcDbBlockTableRecord
  2
*D27
340
0
  0
BLOCK_RECORD
  5
5BC
330
1
100
AcDbSymbolTableRecord
100
AcDbBlockTableRecord
  2
*D28
340
0
  0
BLOCK_RECORD
  5
5C9
330
1
100
AcDbSymbolTableRecord
100
AcDbBlockTableRecord
  2
*D29
340
0
  0
BLOCK_RECORD
  5
5DA
330
1
100
AcDbSymbolTableRecord
100
AcDbBlockTableRecord
  2
*D30
340
0
  0
BLOCK_RECORD
  5
5E7
330
1
100
AcDbSymbolTableRecord
100
AcDbBlockTableRecord
  2
*D31
340
0
  0
BLOCK_RECORD
  5
5F4
330
1
100
AcDbSymbolTableRecord
100
AcDbBlockTableRecord
  2
*D32
340
0
  0
BLOCK_RECORD
  5
5FC
330
1
100
AcDbSymbolTableRecord
100
AcDbBlockTableRecord
  2
*D33
340
0
  0
BLOCK_RECORD
  5
6FF
330
1
100
AcDbSymbolTableRecord
100
AcDbBlockTableRecord
  2
*D34
340
0
  0
BLOCK_RECORD
  5
70C
330
1
100
AcDbSymbolTableRecord
100
AcDbBlockTableRecord
  2
*D35
340
0
  0
BLOCK_RECORD
  5
719
330
1
100
AcDbSymbolTableRecord
100
AcDbBlockTableRecord
  2
*D36
340
0
  0
BLOCK_RECORD
  5
726
330
1
100
AcDbSymbolTableRecord
100
AcDbBlockTableRecord
  2
*D37
340
0
  0
BLOCK_RECORD
  5
733
330
1
100
AcDbSymbolTableRecord
100
AcDbBlockTableRecord
  2
*D38
340
0
  0
BLOCK_RECORD
  5
740
330
1
100
AcDbSymbolTableRecord
100
AcDbBlockTableRecord
  2
*D39
340
0
  0
BLOCK_RECORD
  5
74D
330
1
100
AcDbSymbolTableRecord
100
AcDbBlockTableRecord
  2
*D40
340
0
  0
BLOCK_RECORD
  5
75A
330
1
100
AcDbSymbolTableRecord
100
AcDbBlockTableRecord
  2
*D41
340
0
  0
BLOCK_RECORD
  5
767
330
1
100
AcDbSymbolTableRecord
100
AcDbBlockTableRecord
  2
*D42
340
0
  0
BLOCK_RECORD
  5
774
330
1
100
AcDbSymbolTableRecord
100
AcDbBlockTableRecord
  2
*D43
340
0
  0
BLOCK_RECORD
  5
77C
330
1
100
AcDbSymbolTableRecord
100
AcDbBlockTableRecord
  2
*D44
340
0
  0
BLOCK_RECORD
  5
789
330
1
100
AcDbSymbolTableRecord
100
AcDbBlockTableRecord
  2
*D45
340
0
  0
BLOCK_RECORD
  5
796
330
1
100
AcDbSymbolTableRecord
100
AcDbBlockTableRecord
  2
*D46
340
0
  0
BLOCK_RECORD
  5
7A3
330
1
100
AcDbSymbolTableRecord
100
AcDbBlockTableRecord
  2
*D47
340
0
  0
BLOCK_RECORD
  5
80F
330
1
100
AcDbSymbolTableRecord
100
AcDbBlockTableRecord
  2
*D48
340
0
  0
BLOCK_RECORD
  5
817
330
1
100
AcDbSymbolTableRecord
100
AcDbBlockTableRecord
  2
*D49
340
0
  0
BLOCK_RECORD
  5
824
330
1
100
AcDbSymbolTableRecord
100
AcDbBlockTableRecord
  2
*D50
340
0
  0
BLOCK_RECORD
  5
831
330
1
100
AcDbSymbolTableRecord
100
AcDbBlockTableRecord
  2
*D51
340
0
  0
BLOCK_RECORD
  5
83E
330
1
100
AcDbSymbolTableRecord
100
AcDbBlockTableRecord
  2
*D52
340
0
  0
BLOCK_RECORD
  5
85F
330
1
100
AcDbSymbolTableRecord
100
AcDbBlockTableRecord
  2
*D53
340
0
  0
BLOCK_RECORD
  5
884
330
1
100
AcDbSymbolTableRecord
100
AcDbBlockTableRecord
  2
*D54
340
0
  0
BLOCK_RECORD
  5
88C
330
1
100
AcDbSymbolTableRecord
100
AcDbBlockTableRecord
  2
*D55
340
0
  0
BLOCK_RECORD
  5
A69
330
1
100
AcDbSymbolTableRecord
100
AcDbBlockTableRecord
  2
*D56
340
0
  0
BLOCK_RECORD
  5
A76
330
1
100
AcDbSymbolTableRecord
100
AcDbBlockTableRecord
  2
*D57
340
0
  0
BLOCK_RECORD
  5
A84
330
1
100
AcDbSymbolTableRecord
100
AcDbBlockTableRecord
  2
*D58
340
0
  0
BLOCK_RECORD
  5
A92
330
1
100
AcDbSymbolTableRecord
100
AcDbBlockTableRecord
  2
*D59
340
0
  0
BLOCK_RECORD
  5
A9F
330
1
100
AcDbSymbolTableRecord
100
AcDbBlockTableRecord
  2
*D60
340
0
  0
BLOCK_RECORD
  5
AAC
330
1
100
AcDbSymbolTableRecord
100
AcDbBlockTableRecord
  2
*D61
340
0
  0
BLOCK_RECORD
  5
AB9
330
1
100
AcDbSymbolTableRecord
100
AcDbBlockTableRecord
  2
*D62
340
0
  0
BLOCK_RECORD
  5
AC6
330
1
100
AcDbSymbolTableRecord
100
AcDbBlockTableRecord
  2
*D63
340
0
  0
BLOCK_RECORD
  5
AD3
330
1
100
AcDbSymbolTableRecord
100
AcDbBlockTableRecord
  2
*D64
340
0
  0
BLOCK_RECORD
  5
ADE
330
1
100
AcDbSymbolTableRecord
100
AcDbBlockTableRecord
  2
*D65
340
0
  0
BLOCK_RECORD
  5
AEB
330
1
100
AcDbSymbolTableRecord
100
AcDbBlockTableRecord
  2
*D66
340
0
  0
BLOCK_RECORD
  5
C21
330
1
100
AcDbSymbolTableRecord
100
AcDbBlockTableRecord
  2
*D67
340
0
  0
BLOCK_RECORD
  5
C2E
330
1
100
AcDbSymbolTableRecord
100
AcDbBlockTableRecord
  2
*D68
340
0
  0
BLOCK_RECORD
  5
C3B
330
1
100
AcDbSymbolTableRecord
100
AcDbBlockTableRecord
  2
*D69
340
0
  0
BLOCK_RECORD
  5
C48
330
1
100
AcDbSymbolTableRecord
100
AcDbBlockTableRecord
  2
*D70
340
0
  0
BLOCK_RECORD
  5
C56
330
1
100
AcDbSymbolTableRecord
100
AcDbBlockTableRecord
  2
*D71
340
0
  0
BLOCK_RECORD
  5
C64
330
1
100
AcDbSymbolTableRecord
100
AcDbBlockTableRecord
  2
*D72
340
0
  0
BLOCK_RECORD
  5
C71
330
1
100
AcDbSymbolTableRecord
100
AcDbBlockTableRecord
  2
*D73
340
0
  0
BLOCK_RECORD
  5
C79
330
1
100
AcDbSymbolTableRecord
100
AcDbBlockTableRecord
  2
*D74
340
0
  0
BLOCK_RECORD
  5
C86
330
1
100
AcDbSymbolTableRecord
100
AcDbBlockTableRecord
  2
*D75
340
0
  0
BLOCK_RECORD
  5
C9B
330
1
100
AcDbSymbolTableRecord
100
AcDbBlockTableRecord
  2
*D76
340
0
  0
BLOCK_RECORD
  5
CBC
330
1
100
AcDbSymbolTableRecord
100
AcDbBlockTableRecord
  2
*D77
340
0
  0
BLOCK_RECORD
  5
DBA
330
1
100
AcDbSymbolTableRecord
100
AcDbBlockTableRecord
  2
*D78
340
0
  0
BLOCK_RECORD
  5
DC7
330
1
100
AcDbSymbolTableRecord
100
AcDbBlockTableRecord
  2
*D79
340
0
  0
BLOCK_RECORD
  5
DD4
330
1
100
AcDbSymbolTableRecord
100
AcDbBlockTableRecord
  2
*D80
340
0
  0
BLOCK_RECORD
  5
DE1
330
1
100
AcDbSymbolTableRecord
100
AcDbBlockTableRecord
  2
*D81
340
0
  0
BLOCK_RECORD
  5
DEE
330
1
100
AcDbSymbolTableRecord
100
AcDbBlockTableRecord
  2
*D82
340
0
  0
BLOCK_RECORD
  5
DFB
330
1
100
AcDbSymbolTableRecord
100
AcDbBlockTableRecord
  2
*D83
340
0
  0
BLOCK_RECORD
  5
E08
330
1
100
AcDbSymbolTableRecord
100
AcDbBlockTableRecord
  2
*D84
340
0
  0
BLOCK_RECORD
  5
E15
330
1
100
AcDbSymbolTableRecord
100
AcDbBlockTableRecord
  2
*D85
340
0
  0
BLOCK_RECORD
  5
E1D
330
1
100
AcDbSymbolTableRecord
100
AcDbBlockTableRecord
  2
*D86
340
0
  0
BLOCK_RECORD
  5
E2B
330
1
100
AcDbSymbolTableRecord
100
AcDbBlockTableRecord
  2
*D87
340
0
  0
BLOCK_RECORD
  5
E39
330
1
100
AcDbSymbolTableRecord
100
AcDbBlockTableRecord
  2
*D88
340
0
  0
BLOCK_RECORD
  5
E47
330
1
100
AcDbSymbolTableRecord
100
AcDbBlockTableRecord
  2
*D89
340
0
  0
BLOCK_RECORD
  5
E55
330
1
100
AcDbSymbolTableRecord
100
AcDbBlockTableRecord
  2
*D90
340
0
  0
BLOCK_RECORD
  5
E5D
330
1
100
AcDbSymbolTableRecord
100
AcDbBlockTableRecord
  2
*D91
340
0
  0
BLOCK_RECORD
  5
E6A
330
1
100
AcDbSymbolTableRecord
100
AcDbBlockTableRecord
  2
*D92
340
0
  0
BLOCK_RECORD
  5
E77
330
1
100
AcDbSymbolTableRecord
100
AcDbBlockTableRecord
  2
*D93
340
0
  0
BLOCK_RECORD
  5
F1A
330
1
100
AcDbSymbolTableRecord
100
AcDbBlockTableRecord
  2
*D94
340
0
  0
BLOCK_RECORD
  5
F28
330
1
100
AcDbSymbolTableRecord
100
AcDbBlockTableRecord
  2
*D95
340
0
  0
BLOCK_RECORD
  5
F36
330
1
100
AcDbSymbolTableRecord
100
AcDbBlockTableRecord
  2
*D96
340
0
  0
BLOCK_RECORD
  5
F44
330
1
100
AcDbSymbolTableRecord
100
AcDbBlockTableRecord
  2
*D97
340
0
  0
BLOCK_RECORD
  5
F52
330
1
100
AcDbSymbolTableRecord
100
AcDbBlockTableRecord
  2
*D98
340
0
  0
BLOCK_RECORD
  5
F5A
330
1
100
AcDbSymbolTableRecord
100
AcDbBlockTableRecord
  2
*D99
340
0
  0
BLOCK_RECORD
  5
F67
330
1
100
AcDbSymbolTableRecord
100
AcDbBlockTableRecord
  2
*D100
340
0
  0
BLOCK_RECORD
  5
F74
330
1
100
AcDbSymbolTableRecord
100
AcDbBlockTableRecord
  2
*D101
340
0
  0
BLOCK_RECORD
  5
F81
330
1
100
AcDbSymbolTableRecord
100
AcDbBlockTableRecord
  2
*D102
340
0
  0
BLOCK_RECORD
  5
F8E
330
1
100
AcDbSymbolTableRecord
100
AcDbBlockTableRecord
  2
*D103
340
0
  0
BLOCK_RECORD
  5
F9B
330
1
100
AcDbSymbolTableRecord
100
AcDbBlockTableRecord
  2
*D104
340
0
  0
BLOCK_RECORD
  5
FA8
330
1
100
AcDbSymbolTableRecord
100
AcDbBlockTableRecord
  2
*D105
340
0
  0
BLOCK_RECORD
  5
FE1
330
1
100
AcDbSymbolTableRecord
100
AcDbBlockTableRecord
  2
*D106
340
0
  0
BLOCK_RECORD
  5
FEE
330
1
100
AcDbSymbolTableRecord
100
AcDbBlockTableRecord
  2
*D107
340
0
  0
BLOCK_RECORD
  5
FFB
330
1
100
AcDbSymbolTableRecord
100
AcDbBlockTableRecord
  2
*D108
340
0
  0
BLOCK_RECORD
  5
1008
330
1
100
AcDbSymbolTableRecord
100
AcDbBlockTableRecord
  2
*D109
340
0
  0
BLOCK_RECORD
  5
1120
330
1
100
AcDbSymbolTableRecord
100
AcDbBlockTableRecord
  2
*D110
340
0
  0
BLOCK_RECORD
  5
1304
330
1
100
AcDbSymbolTableRecord
100
AcDbBlockTableRecord
  2
*D111
340
0
  0
BLOCK_RECORD
  5
1311
330
1
100
AcDbSymbolTableRecord
100
AcDbBlockTableRecord
  2
*D112
340
0
  0
BLOCK_RECORD
  5
131E
330
1
100
AcDbSymbolTableRecord
100
AcDbBlockTableRecord
  2
*D113
340
0
  0
BLOCK_RECORD
  5
132B
330
1
100
AcDbSymbolTableRecord
100
AcDbBlockTableRecord
  2
*D114
340
0
  0
BLOCK_RECORD
  5
1338
330
1
100
AcDbSymbolTableRecord
100
AcDbBlockTableRecord
  2
*D115
340
0
  0
BLOCK_RECORD
  5
1399
330
1
100
AcDbSymbolTableRecord
100
AcDbBlockTableRecord
  2
*D117
340
0
  0
BLOCK_RECORD
  5
13A6
330
1
100
AcDbSymbolTableRecord
100
AcDbBlockTableRecord
  2
*D118
340
0
  0
BLOCK_RECORD
  5
13B3
330
1
100
AcDbSymbolTableRecord
100
AcDbBlockTableRecord
  2
*D119
340
0
  0
BLOCK_RECORD
  5
13C0
330
1
100
AcDbSymbolTableRecord
100
AcDbBlockTableRecord
  2
*D120
340
0
  0
BLOCK_RECORD
  5
13CD
330
1
100
AcDbSymbolTableRecord
100
AcDbBlockTableRecord
  2
*D121
340
0
  0
BLOCK_RECORD
  5
14AF
330
1
100
AcDbSymbolTableRecord
100
AcDbBlockTableRecord
  2
*D123
340
0
  0
BLOCK_RECORD
  5
14BF
330
1
100
AcDbSymbolTableRecord
100
AcDbBlockTableRecord
  2
*D124
340
0
  0
BLOCK_RECORD
  5
14F5
330
1
100
AcDbSymbolTableRecord
100
AcDbBlockTableRecord
  2
*D127
340
0
  0
BLOCK_RECORD
  5
1502
330
1
100
AcDbSymbolTableRecord
100
AcDbBlockTableRecord
  2
*D128
340
0
  0
BLOCK_RECORD
  5
150F
330
1
100
AcDbSymbolTableRecord
100
AcDbBlockTableRecord
  2
*D129
340
0
  0
BLOCK_RECORD
  5
151C
330
1
100
AcDbSymbolTableRecord
100
AcDbBlockTableRecord
  2
*D130
340
0
  0
BLOCK_RECORD
  5
1529
330
1
100
AcDbSymbolTableRecord
100
AcDbBlockTableRecord
  2
*D131
340
0
  0
BLOCK_RECORD
  5
1561
330
1
100
AcDbSymbolTableRecord
100
AcDbBlockTableRecord
  2
*D133
340
0
  0
BLOCK_RECORD
  5
156E
330
1
100
AcDbSymbolTableRecord
100
AcDbBlockTableRecord
  2
*D134
340
0
  0
BLOCK_RECORD
  5
157B
330
1
100
AcDbSymbolTableRecord
100
AcDbBlockTableRecord
  2
*D135
340
0
  0
BLOCK_RECORD
  5
1583
330
1
100
AcDbSymbolTableRecord
100
AcDbBlockTableRecord
  2
*D136
340
0
  0
BLOCK_RECORD
  5
1590
330
1
100
AcDbSymbolTableRecord
100
AcDbBlockTableRecord
  2
*D137
340
0
  0
ENDTAB
  0
ENDSEC
  0
SECTION
  2
BLOCKS
  0
BLOCK
  5
22
330
21
100
AcDbEntity
  8
0
100
AcDbBlockBegin
  2
*Model_Space
 70
     0
 10
0.0
 20
0.0
 30
0.0
  3
*Model_Space
  1

  0
ENDBLK
  5
23
330
21
100
AcDbEntity
  8
0
100
AcDbBlockEnd
  0
BLOCK
  5
1E
330
1D
100
AcDbEntity
 67
     1
  8
0
100
AcDbBlockBegin
  2
*Paper_Space
 70
     0
 10
0.0
 20
0.0
 30
0.0
  3
*Paper_Space
  1

  0
ENDBLK
  5
1F
330
1D
100
AcDbEntity
 67
     1
  8
0
100
AcDbBlockEnd
  0
BLOCK
  5
26
330
25
100
AcDbEntity
  8
0
100
AcDbBlockBegin
  2
*Paper_Space0
 70
     0
 10
0.0
 20
0.0
 30
0.0
  3
*Paper_Space0
  1

  0
ENDBLK
  5
27
330
25
100
AcDbEntity
  8
0
100
AcDbBlockEnd
  0
BLOCK
  5
206
330
1FB
100
AcDbEntity
  8
0
100
AcDbBlockBegin
  2
*D1
 70
     1
 10
0.0
 20
0.0
 30
0.0
  3
*D1
  1

  0
LINE
  5
4C7
330
1FB
100
AcDbEntity
  8
标注
370
    -2
100
AcDbLine
 10
78.25616482987856
 20
155.5239103140892
 30
0.0
 11
81.9068340916498
 21
155.5239103140892
 31
0.0
  0
LINE
  5
4C8
330
1FB
100
AcDbEntity
  8
标注
370
    -2
100
AcDbLine
 10
80.46088923932734
 20
153.0435953534593
 30
0.0
 11
81.9068340916498
 21
153.0435953534593
 31
0.0
  0
LINE
  5
4C9
330
1FB
100
AcDbEntity
  8
标注
370
    -2
100
AcDbLine
 10
81.5868340916498
 20
154.8739103140892
 30
0.0
 11
81.5868340916498
 21
153.6935953534593
 31
0.0
  0
LINE
  5
4CA
330
1FB
100
AcDbEntity
  8
标注
370
    -2
100
AcDbLine
 10
81.5868340916498
 20
153.0435953534593
 30
0.0
 11
81.5868340916498
 21
152.3935953534593
 31
0.0
  0
SOLID
  5
4CB
330
1FB
100
AcDbEntity
  8
标注
100
AcDbTrace
 10
81.47850075831648
 20
154.8739103140892
 30
0.0
 11
81.69516742498315
 21
154.8739103140892
 31
0.0
 12
81.5868340916498
 22
155.5239103140892
 32
0.0
 13
81.5868340916498
 23
155.5239103140892
 33
0.0
  0
SOLID
  5
4CC
330
1FB
100
AcDbEntity
  8
标注
100
AcDbTrace
 10
81.47850075831648
 20
153.6935953534593
 30
0.0
 11
81.69516742498315
 21
153.6935953534593
 31
0.0
 12
81.5868340916498
 22
153.0435953534593
 32
0.0
 13
81.5868340916498
 23
153.0435953534593
 33
0.0
  0
MTEXT
  5
4CD
330
1FB
100
AcDbEntity
  8
标注
100
AcDbMText
 10
81.5868340916498
 20
150.5685953534593
 30
0.0
 40
0.65
 41
0.0
 71
     5
 72
     1
  1
\A1;2 1/2"
 11
0.0000000000000001
 21
1.0
 31
0.0
 73
     1
 44
1.0
  0
POINT
  5
4CE
330
1FB
100
AcDbEntity
  8
Defpoints
 62
     0
100
AcDbPoint
 10
77.37616482987856
 20
155.5239103140892
 30
0.0
  0
POINT
  5
4CF
330
1FB
100
AcDbEntity
  8
Defpoints
 62
     0
100
AcDbPoint
 10
79.58088923932734
 20
153.0435953534593
 30
0.0
  0
POINT
  5
4D0
330
1FB
100
AcDbEntity
  8
Defpoints
 62
     0
100
AcDbPoint
 10
81.5868340916498
 20
153.0435953534593
 30
0.0
  0
ENDBLK
  5
207
330
1FB
100
AcDbEntity
  8
0
100
AcDbBlockEnd
  0
BLOCK
  5
214
330
208
100
AcDbEntity
  8
0
100
AcDbBlockBegin
  2
*D2
 70
     1
 10
0.0
 20
0.0
 30
0.0
  3
*D2
  1

  0
LINE
  5
46F
330
208
100
AcDbEntity
  8
标注
370
    -2
100
AcDbLine
 10
78.25616482987856
 20
172.531784329837
 30
0.0
 11
81.89537774364906
 21
172.531784329837
 31
0.0
  0
LINE
  5
470
330
208
100
AcDbEntity
  8
标注
370
    -2
100
AcDbLine
 10
80.46088923932712
 20
174.0278473219635
 30
0.0
 11
81.89537774364902
 21
174.0278473219635
 31
0.0
  0
LINE
  5
471
330
208
100
AcDbEntity
  8
标注
370
    -2
100
AcDbLine
 10
81.57537774364902
 20
171.8817843298369
 30
0.0
 11
81.57537774364902
 21
171.2317843298369
 31
0.0
  0
LINE
  5
472
330
208
100
AcDbEntity
  8
标注
370
    -2
100
AcDbLine
 10
81.57537774364902
 20
174.6778473219635
 30
0.0
 11
81.57537774364902
 21
175.3278473219635
 31
0.0
  0
LINE
  5
473
330
208
100
AcDbEntity
  8
标注
370
    -2
100
AcDbLine
 10
81.57537774364902
 20
172.531784329837
 30
0.0
 11
81.57537774364902
 21
174.0278473219635
 31
0.0
  0
SOLID
  5
474
330
208
100
AcDbEntity
  8
标注
100
AcDbTrace
 10
81.46704441031571
 20
171.8817843298369
 30
0.0
 11
81.68371107698234
 21
171.8817843298369
 31
0.0
 12
81.57537774364902
 22
172.531784329837
 32
0.0
 13
81.57537774364902
 23
172.531784329837
 33
0.0
  0
SOLID
  5
475
330
208
100
AcDbEntity
  8
标注
100
AcDbTrace
 10
81.46704441031571
 20
174.6778473219635
 30
0.0
 11
81.68371107698234
 21
174.6778473219635
 31
0.0
 12
81.57537774364902
 22
174.0278473219635
 32
0.0
 13
81.57537774364902
 23
174.0278473219635
 33
0.0
  0
MTEXT
  5
476
330
208
100
AcDbEntity
  8
标注
100
AcDbMText
 10
81.575377743649
 20
177.0445139886301
 30
0.0
 40
0.65
 41
0.0
 71
     5
 72
     1
  1
\A1;1 1/2"
 11
0.0000000000000001
 21
1.0
 31
0.0
 73
     1
 44
1.0
  0
POINT
  5
477
330
208
100
AcDbEntity
  8
Defpoints
 62
     0
100
AcDbPoint
 10
77.37616482987856
 20
172.531784329837
 30
0.0
  0
POINT
  5
478
330
208
100
AcDbEntity
  8
Defpoints
 62
     0
100
AcDbPoint
 10
79.58088923932712
 20
174.0278473219635
 30
0.0
  0
POINT
  5
479
330
208
100
AcDbEntity
  8
Defpoints
 62
     0
100
AcDbPoint
 10
81.57537774364902
 20
174.0278473219635
 30
0.0
  0
ENDBLK
  5
215
330
208
100
AcDbEntity
  8
0
100
AcDbBlockEnd
  0
BLOCK
  5
222
330
216
100
AcDbEntity
  8
0
100
AcDbBlockBegin
  2
*D3
 70
     1
 10
0.0
 20
0.0
 30
0.0
  3
*D3
  1

  0
LINE
  5
410
330
216
100
AcDbEntity
  8
标注
370
    -2
100
AcDbLine
 10
48.12419632594128
 20
155.4313118888923
 30
0.0
 11
48.12419632594128
 21
150.8475526144568
 31
0.0
  0
LINE
  5
411
330
216
100
AcDbEntity
  8
标注
370
    -2
100
AcDbLine
 10
46.70687349129592
 20
152.1635953534593
 30
0.0
 11
46.70687349129592
 21
150.8475526144568
 31
0.0
  0
LINE
  5
412
330
216
100
AcDbEntity
  8
标注
370
    -2
100
AcDbLine
 10
48.77419632594127
 20
151.1675526144568
 30
0.0
 11
49.42419632594127
 21
151.1675526144568
 31
0.0
  0
LINE
  5
413
330
216
100
AcDbEntity
  8
标注
370
    -2
100
AcDbLine
 10
46.05687349129594
 20
151.1675526144568
 30
0.0
 11
45.40687349129592
 21
151.1675526144568
 31
0.0
  0
LINE
  5
414
330
216
100
AcDbEntity
  8
标注
370
    -2
100
AcDbLine
 10
48.12419632594128
 20
151.1675526144568
 30
0.0
 11
46.70687349129592
 21
151.1675526144568
 31
0.0
  0
SOLID
  5
415
330
216
100
AcDbEntity
  8
标注
100
AcDbTrace
 10
48.77419632594127
 20
151.2758859477901
 30
0.0
 11
48.77419632594127
 21
151.0592192811235
 31
0.0
 12
48.12419632594128
 22
151.1675526144568
 32
0.0
 13
48.12419632594128
 23
151.1675526144568
 33
0.0
  0
SOLID
  5
416
330
216
100
AcDbEntity
  8
标注
100
AcDbTrace
 10
46.05687349129594
 20
151.2758859477901
 30
0.0
 11
46.05687349129594
 21
151.0592192811235
 31
0.0
 12
46.70687349129592
 22
151.1675526144568
 32
0.0
 13
46.70687349129592
 23
151.1675526144568
 33
0.0
  0
MTEXT
  5
417
330
216
100
AcDbEntity
  8
标注
100
AcDbMText
 10
43.58187349129592
 20
151.1675526144568
 30
0.0
 40
0.65
 41
0.0
 71
     5
 72
     1
  1
\A1;1 3/8"
 73
     1
 44
1.0
  0
POINT
  5
418
330
216
100
AcDbEntity
  8
Defpoints
 62
     0
100
AcDbPoint
 10
48.12419632594128
 20
156.3113118888923
 30
0.0
  0
POINT
  5
419
330
216
100
AcDbEntity
  8
Defpoints
 62
     0
100
AcDbPoint
 10
46.70687349129592
 20
153.0435953534593
 30
0.0
  0
POINT
  5
41A
330
216
100
AcDbEntity
  8
Defpoints
 62
     0
100
AcDbPoint
 10
46.70687349129592
 20
151.1675526144568
 30
0.0
  0
ENDBLK
  5
223
330
216
100
AcDbEntity
  8
0
100
AcDbBlockEnd
  0
BLOCK
  5
22F
330
224
100
AcDbEntity
  8
0
100
AcDbBlockBegin
  2
*D4
 70
     1
 10
0.0
 20
0.0
 30
0.0
  3
*D4
  1

  0
LINE
  5
425
330
224
100
AcDbEntity
  8
标注
370
    -2
100
AcDbLine
 10
48.12419632594128
 20
155.4313118888923
 30
0.0
 11
48.12419632594128
 21
150.8475526144568
 31
0.0
  0
LINE
  5
426
330
224
100
AcDbEntity
  8
标注
370
    -2
100
AcDbLine
 10
78.16356640468166
 20
155.4313118888923
 30
0.0
 11
78.16356640468166
 21
150.8475526144568
 31
0.0
  0
LINE
  5
427
330
224
100
AcDbEntity
  8
标注
370
    -2
100
AcDbLine
 10
48.77419632594127
 20
151.1675526144568
 30
0.0
 11
62.2397146986448
 21
151.1675526144568
 31
0.0
  0
LINE
  5
428
330
224
100
AcDbEntity
  8
标注
370
    -2
100
AcDbLine
 10
77.51356640468165
 20
151.1675526144568
 30
0.0
 11
64.04804803197814
 21
151.1675526144568
 31
0.0
  0
SOLID
  5
429
330
224
100
AcDbEntity
  8
标注
100
AcDbTrace
 10
48.77419632594127
 20
151.2758859477901
 30
0.0
 11
48.77419632594127
 21
151.0592192811235
 31
0.0
 12
48.12419632594128
 22
151.1675526144568
 32
0.0
 13
48.12419632594128
 23
151.1675526144568
 33
0.0
  0
SOLID
  5
42A
330
224
100
AcDbEntity
  8
标注
100
AcDbTrace
 10
77.51356640468165
 20
151.2758859477901
 30
0.0
 11
77.51356640468165
 21
151.0592192811235
 31
0.0
 12
78.16356640468166
 22
151.1675526144568
 32
0.0
 13
78.16356640468166
 23
151.1675526144568
 33
0.0
  0
MTEXT
  5
42B
330
224
100
AcDbEntity
  8
标注
100
AcDbMText
 10
63.14388136531147
 20
151.1675526144568
 30
0.0
 40
0.65
 41
0.0
 71
     5
 72
     1
  1
\A1;30"
 73
     1
 44
1.0
  0
POINT
  5
42C
330
224
100
AcDbEntity
  8
Defpoints
 62
     0
100
AcDbPoint
 10
48.12419632594128
 20
156.3113118888923
 30
0.0
  0
POINT
  5
42D
330
224
100
AcDbEntity
  8
Defpoints
 62
     0
100
AcDbPoint
 10
78.16356640468166
 20
156.3113118888923
 30
0.0
  0
POINT
  5
42E
330
224
100
AcDbEntity
  8
Defpoints
 62
     0
100
AcDbPoint
 10
78.16356640468166
 20
151.1675526144568
 30
0.0
  0
ENDBLK
  5
230
330
224
100
AcDbEntity
  8
0
100
AcDbBlockEnd
  0
BLOCK
  5
23C
330
231
100
AcDbEntity
  8
0
100
AcDbBlockBegin
  2
*D5
 70
     1
 10
0.0
 20
0.0
 30
0.0
  3
*D5
  1

  0
LINE
  5
42F
330
231
100
AcDbEntity
  8
标注
370
    -2
100
AcDbLine
 10
78.25616482987856
 20
155.5239103140892
 30
0.0
 11
81.89537774364902
 21
155.5239103140892
 31
0.0
  0
LINE
  5
430
330
231
100
AcDbEntity
  8
标注
370
    -2
100
AcDbLine
 10
78.25616482987856
 20
172.531784329837
 30
0.0
 11
81.89537774364906
 21
172.531784329837
 31
0.0
  0
LINE
  5
431
330
231
100
AcDbEntity
  8
标注
370
    -2
100
AcDbLine
 10
81.57537774364902
 20
156.1739103140892
 30
0.0
 11
81.57537774364902
 21
163.1778473219631
 31
0.0
  0
LINE
  5
432
330
231
100
AcDbEntity
  8
标注
370
    -2
100
AcDbLine
 10
81.57537774364902
 20
171.8817843298369
 30
0.0
 11
81.57537774364902
 21
164.8778473219631
 31
0.0
  0
SOLID
  5
433
330
231
100
AcDbEntity
  8
标注
100
AcDbTrace
 10
81.46704441031568
 20
156.1739103140892
 30
0.0
 11
81.68371107698234
 21
156.1739103140892
 31
0.0
 12
81.57537774364902
 22
155.5239103140892
 32
0.0
 13
81.57537774364902
 23
155.5239103140892
 33
0.0
  0
SOLID
  5
434
330
231
100
AcDbEntity
  8
标注
100
AcDbTrace
 10
81.46704441031571
 20
171.8817843298369
 30
0.0
 11
81.68371107698234
 21
171.8817843298369
 31
0.0
 12
81.57537774364902
 22
172.531784329837
 32
0.0
 13
81.57537774364902
 23
172.531784329837
 33
0.0
  0
MTEXT
  5
435
330
231
100
AcDbEntity
  8
标注
100
AcDbMText
 10
81.575377743649
 20
164.0278473219631
 30
0.0
 40
0.65
 41
0.0
 71
     5
 72
     1
  1
\A1;17"
 11
0.0000000000000001
 21
1.0
 31
0.0
 73
     1
 44
1.0
  0
POINT
  5
436
330
231
100
AcDbEntity
  8
Defpoints
 62
     0
100
AcDbPoint
 10
77.37616482987856
 20
155.5239103140892
 30
0.0
  0
POINT
  5
437
330
231
100
AcDbEntity
  8
Defpoints
 62
     0
100
AcDbPoint
 10
77.37616482987856
 20
172.531784329837
 30
0.0
  0
POINT
  5
438
330
231
100
AcDbEntity
  8
Defpoints
 62
     0
100
AcDbPoint
 10
81.57537774364902
 20
172.531784329837
 30
0.0
  0
ENDBLK
  5
23D
330
231
100
AcDbEntity
  8
0
100
AcDbBlockEnd
  0
BLOCK
  5
249
330
23E
100
AcDbEntity
  8
0
100
AcDbBlockBegin
  2
*D6
 70
     1
 10
0.0
 20
0.0
 30
0.0
  3
*D6
  1

  0
LINE
  5
47A
330
23E
100
AcDbEntity
  8
标注
370
    -2
100
AcDbLine
 10
68.48355365601105
 20
172.5317843298372
 30
0.0
 11
71.2716785918076
 21
172.5317843298372
 31
0.0
  0
LINE
  5
47B
330
23E
100
AcDbEntity
  8
标注
370
    -2
100
AcDbLine
 10
68.43017916770907
 20
167.0199733062149
 30
0.0
 11
71.2716785918076
 21
167.0199733062149
 31
0.0
  0
LINE
  5
47C
330
23E
100
AcDbEntity
  8
标注
370
    -2
100
AcDbLine
 10
70.95167859180761
 20
171.8817843298372
 30
0.0
 11
70.95167859180761
 21
167.6699733062149
 31
0.0
  0
LINE
  5
47D
330
23E
100
AcDbEntity
  8
标注
370
    -2
100
AcDbLine
 10
70.95167859180761
 20
167.0199733062149
 30
0.0
 11
70.95167859180761
 21
166.3699733062149
 31
0.0
  0
SOLID
  5
47E
330
23E
100
AcDbEntity
  8
标注
100
AcDbTrace
 10
70.84334525847426
 20
171.8817843298372
 30
0.0
 11
71.06001192514094
 21
171.8817843298372
 31
0.0
 12
70.95167859180761
 22
172.5317843298372
 32
0.0
 13
70.95167859180761
 23
172.5317843298372
 33
0.0
  0
SOLID
  5
47F
330
23E
100
AcDbEntity
  8
标注
100
AcDbTrace
 10
70.84334525847426
 20
167.6699733062149
 30
0.0
 11
71.06001192514094
 21
167.6699733062149
 31
0.0
 12
70.95167859180761
 22
167.0199733062149
 32
0.0
 13
70.95167859180761
 23
167.0199733062149
 33
0.0
  0
MTEXT
  5
480
330
23E
100
AcDbEntity
  8
标注
100
AcDbMText
 10
70.95167859180758
 20
164.5449733062149
 30
0.0
 40
0.65
 41
0.0
 71
     5
 72
     1
  1
\A1;5 1/2"
 11
0.0000000000000001
 21
1.0
 31
0.0
 73
     1
 44
1.0
  0
POINT
  5
481
330
23E
100
AcDbEntity
  8
Defpoints
 62
     0
100
AcDbPoint
 10
67.60355365601107
 20
172.5317843298372
 30
0.0
  0
POINT
  5
482
330
23E
100
AcDbEntity
  8
Defpoints
 62
     0
100
AcDbPoint
 10
67.55017916770907
 20
167.0199733062149
 30
0.0
  0
POINT
  5
483
330
23E
100
AcDbEntity
  8
Defpoints
 62
     0
100
AcDbPoint
 10
70.95167859180761
 20
167.0199733062149
 30
0.0
  0
ENDBLK
  5
24A
330
23E
100
AcDbEntity
  8
0
100
AcDbBlockEnd
  0
BLOCK
  5
276
330
26B
100
AcDbEntity
  8
0
100
AcDbBlockBegin
  2
*D7
 70
     1
 10
0.0
 20
0.0
 30
0.0
  3
*D7
  1

  0
LINE
  5
41B
330
26B
100
AcDbEntity
  8
标注
370
    -2
100
AcDbLine
 10
46.70687349129592
 20
152.1635953534593
 30
0.0
 11
46.70687349129592
 21
149.3793647233131
 31
0.0
  0
LINE
  5
41C
330
26B
100
AcDbEntity
  8
标注
370
    -2
100
AcDbLine
 10
79.58088923932734
 20
152.1635953534593
 30
0.0
 11
79.58088923932734
 21
149.3793647233131
 31
0.0
  0
LINE
  5
41D
330
26B
100
AcDbEntity
  8
标注
370
    -2
100
AcDbLine
 10
47.35687349129594
 20
149.6993647233131
 30
0.0
 11
60.88554803197831
 21
149.6993647233131
 31
0.0
  0
LINE
  5
41E
330
26B
100
AcDbEntity
  8
标注
370
    -2
100
AcDbLine
 10
78.93088923932734
 20
149.6993647233131
 30
0.0
 11
65.40221469864497
 21
149.6993647233131
 31
0.0
  0
SOLID
  5
41F
330
26B
100
AcDbEntity
  8
标注
100
AcDbTrace
 10
47.35687349129594
 20
149.8076980566464
 30
0.0
 11
47.35687349129594
 21
149.5910313899798
 31
0.0
 12
46.70687349129592
 22
149.6993647233131
 32
0.0
 13
46.70687349129592
 23
149.6993647233131
 33
0.0
  0
SOLID
  5
420
330
26B
100
AcDbEntity
  8
标注
100
AcDbTrace
 10
78.93088923932734
 20
149.8076980566464
 30
0.0
 11
78.93088923932734
 21
149.5910313899798
 31
0.0
 12
79.58088923932734
 22
149.6993647233131
 32
0.0
 13
79.58088923932734
 23
149.6993647233131
 33
0.0
  0
MTEXT
  5
421
330
26B
100
AcDbEntity
  8
标注
100
AcDbMText
 10
63.14388136531164
 20
149.6993647233131
 30
0.0
 40
0.65
 41
0.0
 71
     5
 72
     1
  1
\A1;32 7/8"
 73
     1
 44
1.0
  0
POINT
  5
422
330
26B
100
AcDbEntity
  8
Defpoints
 62
     0
100
AcDbPoint
 10
46.70687349129592
 20
153.0435953534593
 30
0.0
  0
POINT
  5
423
330
26B
100
AcDbEntity
  8
Defpoints
 62
     0
100
AcDbPoint
 10
79.58088923932734
 20
153.0435953534593
 30
0.0
  0
POINT
  5
424
330
26B
100
AcDbEntity
  8
Defpoints
 62
     0
100
AcDbPoint
 10
79.58088923932734
 20
149.6993647233131
 30
0.0
  0
ENDBLK
  5
277
330
26B
100
AcDbEntity
  8
0
100
AcDbBlockEnd
  0
BLOCK
  5
297
330
28C
100
AcDbEntity
  8
0
100
AcDbBlockBegin
  2
*D8
 70
     1
 10
0.0
 20
0.0
 30
0.0
  3
*D8
  1

  0
LINE
  5
439
330
28C
100
AcDbEntity
  8
标注
370
    -2
100
AcDbLine
 10
80.46088923932744
 20
174.0278473219632
 30
0.0
 11
83.30473352108532
 21
174.0278473219632
 31
0.0
  0
LINE
  5
43A
330
28C
100
AcDbEntity
  8
标注
370
    -2
100
AcDbLine
 10
80.46088923932744
 20
153.0435953534593
 30
0.0
 11
83.30473352108532
 21
153.0435953534593
 31
0.0
  0
LINE
  5
43B
330
28C
100
AcDbEntity
  8
标注
370
    -2
100
AcDbLine
 10
82.98473352108535
 20
173.3778473219632
 30
0.0
 11
82.98473352108535
 21
164.3857213377112
 31
0.0
  0
LINE
  5
43C
330
28C
100
AcDbEntity
  8
标注
370
    -2
100
AcDbLine
 10
82.98473352108533
 20
153.6935953534593
 30
0.0
 11
82.98473352108535
 21
162.6857213377112
 31
0.0
  0
SOLID
  5
43D
330
28C
100
AcDbEntity
  8
标注
100
AcDbTrace
 10
82.87640018775201
 20
173.3778473219632
 30
0.0
 11
83.09306685441869
 21
173.3778473219632
 31
0.0
 12
82.98473352108535
 22
174.0278473219632
 32
0.0
 13
82.98473352108535
 23
174.0278473219632
 33
0.0
  0
SOLID
  5
43E
330
28C
100
AcDbEntity
  8
标注
100
AcDbTrace
 10
82.87640018775197
 20
153.6935953534593
 30
0.0
 11
83.09306685441866
 21
153.6935953534593
 31
0.0
 12
82.98473352108533
 22
153.0435953534593
 32
0.0
 13
82.98473352108533
 23
153.0435953534593
 33
0.0
  0
MTEXT
  5
43F
330
28C
100
AcDbEntity
  8
标注
100
AcDbMText
 10
82.9847335210853
 20
163.5357213377113
 30
0.0
 40
0.65
 41
0.0
 71
     5
 72
     1
  1
\A1;21"
 11
0.0000000000000001
 21
1.0
 31
0.0
 73
     1
 44
1.0
  0
POINT
  5
440
330
28C
100
AcDbEntity
  8
Defpoints
 62
     0
100
AcDbPoint
 10
79.58088923932745
 20
174.0278473219632
 30
0.0
  0
POINT
  5
441
330
28C
100
AcDbEntity
  8
Defpoints
 62
     0
100
AcDbPoint
 10
79.58088923932745
 20
153.0435953534593
 30
0.0
  0
POINT
  5
442
330
28C
100
AcDbEntity
  8
Defpoints
 62
     0
100
AcDbPoint
 10
82.98473352108533
 20
153.0435953534593
 30
0.0
  0
ENDBLK
  5
298
330
28C
100
AcDbEntity
  8
0
100
AcDbBlockEnd
  0
BLOCK
  5
2AC
330
2A3
100
AcDbEntity
  8
0
100
AcDbBlockBegin
  2
*D9
 70
     1
 10
0.0
 20
0.0
 30
0.0
  3
*D9
  1

  0
LINE
  5
44D
330
2A3
100
AcDbEntity
  8
标注
370
    -2
100
AcDbLine
 10
60.23097740342131
 20
165.9275180505
 30
0.0
 11
60.83958338179147
 21
166.1557695851982
 31
0.0
  0
LINE
  5
44E
330
2A3
100
AcDbEntity
  8
标注
370
    -2
100
AcDbLine
 10
65.4481793488319
 20
167.8841770272316
 30
0.0
 11
66.05678532720204
 21
168.1124285619298
 31
0.0
  0
MTEXT
  5
44F
330
2A3
100
AcDbEntity
  8
标注
100
AcDbMText
 10
58.11646176062243
 20
165.1344902825099
 30
0.0
 40
0.65
 41
0.0
 71
     5
 72
     1
  1
\A1;\U+22053 5/8"
 11
0.936316889800252
 21
0.3511562072280411
 31
0.0
 73
     1
 44
1.0
  0
LINE
  5
450
330
2A3
100
AcDbEntity
  8
标注
370
    -2
100
AcDbLine
 10
64.83957337046174
 20
167.6559254925334
 30
0.0
 11
61.44818936016164
 21
166.3840211198964
 31
0.0
  0
SOLID
  5
451
330
2A3
100
AcDbEntity
  8
标注
100
AcDbTrace
 10
65.41013742638219
 20
167.9856113569599
 30
0.0
 11
65.48622127128161
 21
167.7827426975033
 31
0.0
 12
64.83957337046174
 22
167.6559254925334
 32
0.0
 13
64.83957337046174
 23
167.6559254925334
 33
0.0
  0
SOLID
  5
452
330
2A3
100
AcDbEntity
  8
标注
100
AcDbTrace
 10
60.80154145934177
 20
166.2572039149265
 30
0.0
 11
60.87762530424117
 21
166.0543352554698
 31
0.0
 12
61.44818936016164
 22
166.3840211198964
 32
0.0
 13
61.44818936016164
 23
166.3840211198964
 33
0.0
  0
POINT
  5
453
330
2A3
100
AcDbEntity
  8
Defpoints
 62
     0
100
AcDbPoint
 10
61.44818936016164
 20
166.3840211198964
 30
0.0
  0
POINT
  5
454
330
2A3
100
AcDbEntity
  8
Defpoints
 62
     0
100
AcDbPoint
 10
64.83957337046174
 20
167.6559254925334
 30
0.0
  0
ENDBLK
  5
2AD
330
2A3
100
AcDbEntity
  8
0
100
AcDbBlockEnd
  0
BLOCK
  5
2B9
330
2AE
100
AcDbEntity
  8
0
100
AcDbBlockBegin
  2
*D10
 70
     1
 10
0.0
 20
0.0
 30
0.0
  3
*D10
  1

  0
LINE
  5
455
330
2AE
100
AcDbEntity
  8
标注
370
    -2
100
AcDbLine
 10
80.46088923932744
 20
193.99528017428
 30
0.0
 11
81.88204761818663
 21
193.99528017428
 31
0.0
  0
LINE
  5
456
330
2AE
100
AcDbEntity
  8
标注
370
    -2
100
AcDbLine
 10
78.25616482987868
 20
184.1527604892405
 30
0.0
 11
81.88204761818663
 21
184.1527604892405
 31
0.0
  0
LINE
  5
457
330
2AE
100
AcDbEntity
  8
标注
370
    -2
100
AcDbLine
 10
81.56204761818662
 20
193.3452801742799
 30
0.0
 11
81.56204761818662
 21
191.0073536650936
 31
0.0
  0
LINE
  5
458
330
2AE
100
AcDbEntity
  8
标注
370
    -2
100
AcDbLine
 10
81.56204761818662
 20
184.8027604892406
 30
0.0
 11
81.56204761818662
 21
187.1406869984269
 31
0.0
  0
SOLID
  5
459
330
2AE
100
AcDbEntity
  8
标注
100
AcDbTrace
 10
81.45371428485329
 20
193.3452801742799
 30
0.0
 11
81.67038095151996
 21
193.3452801742799
 31
0.0
 12
81.56204761818662
 22
193.99528017428
 32
0.0
 13
81.56204761818662
 23
193.99528017428
 33
0.0
  0
SOLID
  5
45A
330
2AE
100
AcDbEntity
  8
标注
100
AcDbTrace
 10
81.45371428485329
 20
184.8027604892406
 30
0.0
 11
81.67038095151996
 21
184.8027604892406
 31
0.0
 12
81.56204761818662
 22
184.1527604892405
 32
0.0
 13
81.56204761818662
 23
184.1527604892405
 33
0.0
  0
MTEXT
  5
45B
330
2AE
100
AcDbEntity
  8
标注
100
AcDbMText
 10
81.5620476181866
 20
189.0740203317603
 30
0.0
 40
0.65
 41
0.0
 71
     5
 72
     1
  1
\A1;9 7/8"
 11
0.0000000000000001
 21
1.0
 31
0.0
 73
     1
 44
1.0
  0
POINT
  5
45C
330
2AE
100
AcDbEntity
  8
Defpoints
 62
     0
100
AcDbPoint
 10
79.58088923932745
 20
193.99528017428
 30
0.0
  0
POINT
  5
45D
330
2AE
100
AcDbEntity
  8
Defpoints
 62
     0
100
AcDbPoint
 10
77.37616482987869
 20
184.1527604892405
 30
0.0
  0
POINT
  5
45E
330
2AE
100
AcDbEntity
  8
Defpoints
 62
     0
100
AcDbPoint
 10
81.56204761818662
 20
184.1527604892405
 30
0.0
  0
ENDBLK
  5
2BA
330
2AE
100
AcDbEntity
  8
0
100
AcDbBlockEnd
  0
BLOCK
  5
4AF
330
4A9
100
AcDbEntity
  8
0
100
AcDbBlockBegin
  2
*D11
 70
     1
 10
0.0
 20
0.0
 30
0.0
  3
*D11
  1

  0
LINE
  5
4B8
330
4A9
100
AcDbEntity
  8
标注
370
    -2
100
AcDbLine
 10
49.35772497400751
 20
171.1785590632027
 30
0.0
 11
48.82652546251998
 21
171.8522802666495
 31
0.0
  0
MTEXT
  5
4B9
330
4A9
100
AcDbEntity
  8
标注
100
AcDbMText
 10
50.3535275209651
 20
169.9155810750399
 30
0.0
 40
0.65
 41
0.0
 71
     5
 72
     1
  1
\A1;R3/4"
 11
0.6191518426679261
 21
-0.785271287976908
 31
0.0
 73
     1
 44
1.0
  0
SOLID
  5
4BA
330
4A9
100
AcDbEntity
  8
标注
100
AcDbTrace
 10
48.91159651871745
 20
171.9193550496052
 30
0.0
 11
48.74145440632249
 21
171.7852054836938
 31
0.0
 12
48.42407676478583
 22
172.3627066038345
 32
0.0
 13
48.42407676478583
 23
172.3627066038345
 33
0.0
  0
POINT
  5
4BB
330
4A9
100
AcDbEntity
  8
Defpoints
 62
     0
100
AcDbPoint
 10
48.42407676478583
 20
172.3627066038345
 30
0.0
  0
POINT
  5
4BC
330
4A9
100
AcDbEntity
  8
Defpoints
 62
     0
100
AcDbPoint
 10
48.91159790074475
 20
171.7443827550338
 30
0.0
  0
ENDBLK
  5
4B0
330
4A9
100
AcDbEntity
  8
0
100
AcDbBlockEnd
  0
BLOCK
  5
4F7
330
4F6
100
AcDbEntity
  8
0
 48
5.0
100
AcDbBlockBegin
  2
*D12
 70
     1
 10
0.0
 20
0.0
 30
0.0
  3
*D12
  1

  0
LINE
  5
4F8
330
4F6
100
AcDbEntity
  8
标注
 48
5.0
370
    -2
100
AcDbLine
 10
88091.8676453618
 20
-96629.58179289175
 30
0.0
 11
88299.30895237865
 21
-96629.58179289175
 31
0.0
  0
LINE
  5
4F9
330
4F6
100
AcDbEntity
  8
标注
 48
5.0
370
    -2
100
AcDbLine
 10
88083.36857368804
 20
-97049.58179289175
 30
0.0
 11
88299.30895237865
 21
-97049.58179289175
 31
0.0
  0
LINE
  5
4FA
330
4F6
100
AcDbEntity
  8
标注
 48
5.0
370
    -2
100
AcDbLine
 10
88294.30895237862
 20
-96641.58179289175
 30
0.0
 11
88294.30895237862
 21
-96786.11512622508
 31
0.0
  0
LINE
  5
4FB
330
4F6
100
AcDbEntity
  8
标注
 48
5.0
370
    -2
100
AcDbLine
 10
88294.30895237862
 20
-97037.58179289176
 30
0.0
 11
88294.30895237862
 21
-96893.04845955842
 31
0.0
  0
SOLID
  5
4FC
330
4F6
100
AcDbEntity
  8
标注
 48
5.0
100
AcDbTrace
 10
88292.30895237865
 20
-96641.58179289175
 30
0.0
 11
88296.30895237865
 21
-96641.58179289175
 31
0.0
 12
88294.30895237862
 22
-96629.58179289175
 32
0.0
 13
88294.30895237862
 23
-96629.58179289175
 33
0.0
  0
SOLID
  5
4FD
330
4F6
100
AcDbEntity
  8
标注
 48
5.0
100
AcDbTrace
 10
88292.30895237865
 20
-97037.58179289176
 30
0.0
 11
88296.30895237865
 21
-97037.58179289176
 31
0.0
 12
88294.30895237862
 22
-97049.58179289175
 32
0.0
 13
88294.30895237862
 23
-97049.58179289175
 33
0.0
  0
MTEXT
  5
4FE
330
4F6
100
AcDbEntity
  8
标注
 48
5.0
100
AcDbMText
 10
88294.30895237868
 20
-96839.58179289174
 30
0.0
 40
12.0
 41
0.0
 71
     5
 72
     1
  1
\A1;420 [16 1/2"]
 11
0.0000000000000001
 21
1.0
 31
0.0
 73
     1
 44
1.0
  0
POINT
  5
4FF
330
4F6
100
AcDbEntity
  8
Defpoints
 62
     0
 48
5.0
100
AcDbPoint
 10
88076.86764536182
 20
-96629.58179289175
 30
0.0
  0
POINT
  5
500
330
4F6
100
AcDbEntity
  8
Defpoints
 62
     0
 48
5.0
100
AcDbPoint
 10
88068.36857368804
 20
-97049.58179289175
 30
0.0
  0
POINT
  5
501
330
4F6
100
AcDbEntity
  8
Defpoints
 62
     0
 48
5.0
100
AcDbPoint
 10
88294.30895237862
 20
-97049.58179289175
 30
0.0
  0
ENDBLK
  5
502
330
4F6
100
AcDbEntity
  8
0
 48
5.0
100
AcDbBlockEnd
  0
BLOCK
  5
504
330
503
100
AcDbEntity
  8
0
 48
5.0
100
AcDbBlockBegin
  2
*D13
 70
     1
 10
0.0
 20
0.0
 30
0.0
  3
*D13
  1

  0
LINE
  5
505
330
503
100
AcDbEntity
  8
标注
 48
5.0
370
    -2
100
AcDbLine
 10
88163.30895237863
 20
-96604.18179289177
 30
0.0
 11
88349.30895237864
 21
-96604.18179289177
 31
0.0
  0
LINE
  5
506
330
503
100
AcDbEntity
  8
标注
 48
5.0
370
    -2
100
AcDbLine
 10
88163.30895237863
 20
-97074.98179289173
 30
0.0
 11
88349.30895237864
 21
-97074.98179289173
 31
0.0
  0
LINE
  5
507
330
503
100
AcDbEntity
  8
标注
 48
5.0
370
    -2
100
AcDbLine
 10
88344.30895237863
 20
-96616.18179289174
 30
0.0
 11
88344.30895237863
 21
-96786.11512622508
 31
0.0
  0
LINE
  5
508
330
503
100
AcDbEntity
  8
标注
 48
5.0
370
    -2
100
AcDbLine
 10
88344.30895237863
 20
-97062.98179289175
 30
0.0
 11
88344.30895237863
 21
-96893.0484595584
 31
0.0
  0
SOLID
  5
509
330
503
100
AcDbEntity
  8
标注
 48
5.0
100
AcDbTrace
 10
88342.30895237864
 20
-96616.18179289174
 30
0.0
 11
88346.30895237863
 21
-96616.18179289174
 31
0.0
 12
88344.30895237863
 22
-96604.18179289177
 32
0.0
 13
88344.30895237863
 23
-96604.18179289177
 33
0.0
  0
SOLID
  5
50A
330
503
100
AcDbEntity
  8
标注
 48
5.0
100
AcDbTrace
 10
88342.30895237864
 20
-97062.98179289175
 30
0.0
 11
88346.30895237863
 21
-97062.98179289175
 31
0.0
 12
88344.30895237863
 22
-97074.98179289173
 32
0.0
 13
88344.30895237863
 23
-97074.98179289173
 33
0.0
  0
MTEXT
  5
50B
330
503
100
AcDbEntity
  8
标注
 48
5.0
100
AcDbMText
 10
88344.30895237865
 20
-96839.58179289172
 30
0.0
 40
12.0
 41
0.0
 71
     5
 72
     1
  1
\A1;471 [18 1/2"]
 11
0.0000000000000001
 21
1.0
 31
0.0
 73
     1
 44
1.0
  0
POINT
  5
50C
330
503
100
AcDbEntity
  8
Defpoints
 62
     0
 48
5.0
100
AcDbPoint
 10
88148.30895237863
 20
-96604.18179289177
 30
0.0
  0
POINT
  5
50D
330
503
100
AcDbEntity
  8
Defpoints
 62
     0
 48
5.0
100
AcDbPoint
 10
88148.30895237863
 20
-97074.98179289173
 30
0.0
  0
POINT
  5
50E
330
503
100
AcDbEntity
  8
Defpoints
 62
     0
 48
5.0
100
AcDbPoint
 10
88344.30895237863
 20
-97074.98179289173
 30
0.0
  0
ENDBLK
  5
50F
330
503
100
AcDbEntity
  8
0
 48
5.0
100
AcDbBlockEnd
  0
BLOCK
  5
511
330
510
100
AcDbEntity
  8
0
 48
5.0
100
AcDbBlockBegin
  2
*D14
 70
     1
 10
0.0
 20
0.0
 30
0.0
  3
*D14
  1

  0
LINE
  5
512
330
510
100
AcDbEntity
  8
标注
 48
5.0
370
    -2
100
AcDbLine
 10
87868.90895237865
 20
-96925.00212536575
 30
0.0
 11
87868.90895237865
 21
-97149.98179289176
 31
0.0
  0
LINE
  5
513
330
510
100
AcDbEntity
  8
标注
 48
5.0
370
    -2
100
AcDbLine
 10
88198.90895237865
 20
-96911.48765688851
 30
0.0
 11
88198.90895237865
 21
-97149.98179289176
 31
0.0
  0
LINE
  5
514
330
510
100
AcDbEntity
  8
标注
 48
5.0
370
    -2
100
AcDbLine
 10
87880.90895237866
 20
-97144.98179289174
 30
0.0
 11
87997.70895237868
 21
-97144.98179289174
 31
0.0
  0
LINE
  5
515
330
510
100
AcDbEntity
  8
标注
 48
5.0
370
    -2
100
AcDbLine
 10
88186.90895237867
 20
-97144.98179289174
 30
0.0
 11
88070.10895237866
 21
-97144.98179289174
 31
0.0
  0
SOLID
  5
516
330
510
100
AcDbEntity
  8
标注
 48
5.0
100
AcDbTrace
 10
87880.90895237866
 20
-97142.98179289173
 30
0.0
 11
87880.90895237866
 21
-97146.98179289175
 31
0.0
 12
87868.90895237865
 22
-97144.98179289174
 32
0.0
 13
87868.90895237865
 23
-97144.98179289174
 33
0.0
  0
SOLID
  5
517
330
510
100
AcDbEntity
  8
标注
 48
5.0
100
AcDbTrace
 10
88186.90895237867
 20
-97142.98179289173
 30
0.0
 11
88186.90895237867
 21
-97146.98179289175
 31
0.0
 12
88198.90895237865
 22
-97144.98179289174
 32
0.0
 13
88198.90895237865
 23
-97144.98179289174
 33
0.0
  0
MTEXT
  5
518
330
510
100
AcDbEntity
  8
标注
 48
5.0
100
AcDbMText
 10
88033.90895237866
 20
-97144.98179289174
 30
0.0
 40
12.0
 41
0.0
 71
     5
 72
     1
  1
\A1;330 [13"]
 73
     1
 44
1.0
  0
POINT
  5
519
330
510
100
AcDbEntity
  8
Defpoints
 62
     0
 48
5.0
100
AcDbPoint
 10
87868.90895237865
 20
-96910.00212536572
 30
0.0
  0
POINT
  5
51A
330
510
100
AcDbEntity
  8
Defpoints
 62
     0
 48
5.0
100
AcDbPoint
 10
88198.90895237865
 20
-96896.48765688851
 30
0.0
  0
POINT
  5
51B
330
510
100
AcDbEntity
  8
Defpoints
 62
     0
 48
5.0
100
AcDbPoint
 10
88198.90895237865
 20
-97144.98179289174
 30
0.0
  0
ENDBLK
  5
51C
330
510
100
AcDbEntity
  8
0
 48
5.0
100
AcDbBlockEnd
  0
BLOCK
  5
51E
330
51D
100
AcDbEntity
  8
0
 48
5.0
100
AcDbBlockBegin
  2
*D15
 70
     1
 10
0.0
 20
0.0
 30
0.0
  3
*D15
  1

  0
LINE
  5
51F
330
51D
100
AcDbEntity
  8
标注
 48
5.0
370
    -2
100
AcDbLine
 10
87436.70895237865
 20
-96932.27533504851
 30
0.0
 11
87436.70895237865
 21
-97149.98179289176
 31
0.0
  0
LINE
  5
520
330
51D
100
AcDbEntity
  8
标注
 48
5.0
370
    -2
100
AcDbLine
 10
87836.70895237866
 20
-96926.82693167858
 30
0.0
 11
87836.70895237866
 21
-97149.98179289176
 31
0.0
  0
LINE
  5
521
330
51D
100
AcDbEntity
  8
标注
 48
5.0
370
    -2
100
AcDbLine
 10
87448.70895237866
 20
-97144.98179289174
 30
0.0
 11
87583.24228571199
 21
-97144.98179289174
 31
0.0
  0
LINE
  5
522
330
51D
100
AcDbEntity
  8
标注
 48
5.0
370
    -2
100
AcDbLine
 10
87824.70895237866
 20
-97144.98179289174
 30
0.0
 11
87690.17561904531
 21
-97144.98179289174
 31
0.0
  0
SOLID
  5
523
330
51D
100
AcDbEntity
  8
标注
 48
5.0
100
AcDbTrace
 10
87448.70895237866
 20
-97142.98179289173
 30
0.0
 11
87448.70895237866
 21
-97146.98179289175
 31
0.0
 12
87436.70895237865
 22
-97144.98179289174
 32
0.0
 13
87436.70895237865
 23
-97144.98179289174
 33
0.0
  0
SOLID
  5
524
330
51D
100
AcDbEntity
  8
标注
 48
5.0
100
AcDbTrace
 10
87824.70895237866
 20
-97142.98179289173
 30
0.0
 11
87824.70895237866
 21
-97146.98179289175
 31
0.0
 12
87836.70895237866
 22
-97144.98179289174
 32
0.0
 13
87836.70895237866
 23
-97144.98179289174
 33
0.0
  0
MTEXT
  5
525
330
51D
100
AcDbEntity
  8
标注
 48
5.0
100
AcDbMText
 10
87636.70895237865
 20
-97144.98179289174
 30
0.0
 40
12.0
 41
0.0
 71
     5
 72
     1
  1
\A1;400 [15 3/4"]
 73
     1
 44
1.0
  0
POINT
  5
526
330
51D
100
AcDbEntity
  8
Defpoints
 62
     0
 48
5.0
100
AcDbPoint
 10
87436.70895237865
 20
-96917.27533504851
 30
0.0
  0
POINT
  5
527
330
51D
100
AcDbEntity
  8
Defpoints
 62
     0
 48
5.0
100
AcDbPoint
 10
87836.70895237866
 20
-96911.82693167858
 30
0.0
  0
POINT
  5
528
330
51D
100
AcDbEntity
  8
Defpoints
 62
     0
 48
5.0
100
AcDbPoint
 10
87836.70895237866
 20
-97144.98179289174
 30
0.0
  0
ENDBLK
  5
529
330
51D
100
AcDbEntity
  8
0
 48
5.0
100
AcDbBlockEnd
  0
BLOCK
  5
52B
330
52A
100
AcDbEntity
  8
0
 48
5.0
100
AcDbBlockBegin
  2
*D16
 70
     1
 10
0.0
 20
0.0
 30
0.0
  3
*D16
  1

  0
LINE
  5
52C
330
52A
100
AcDbEntity
  8
标注
 48
5.0
370
    -2
100
AcDbLine
 10
87411.30895237864
 20
-97006.98179289172
 30
0.0
 11
87411.30895237864
 21
-97199.98179289175
 31
0.0
  0
LINE
  5
52D
330
52A
100
AcDbEntity
  8
标注
 48
5.0
370
    -2
100
AcDbLine
 10
88224.30895237868
 20
-97004.05123855793
 30
0.0
 11
88224.30895237868
 21
-97199.98179289175
 31
0.0
  0
LINE
  5
52E
330
52A
100
AcDbEntity
  8
标注
 48
5.0
370
    -2
100
AcDbLine
 10
87423.30895237865
 20
-97194.98179289177
 30
0.0
 11
87781.47561904535
 21
-97194.98179289177
 31
0.0
  0
LINE
  5
52F
330
52A
100
AcDbEntity
  8
标注
 48
5.0
370
    -2
100
AcDbLine
 10
88212.30895237865
 20
-97194.98179289177
 30
0.0
 11
87854.14228571198
 21
-97194.98179289177
 31
0.0
  0
SOLID
  5
530
330
52A
100
AcDbEntity
  8
标注
 48
5.0
100
AcDbTrace
 10
87423.30895237865
 20
-97192.98179289177
 30
0.0
 11
87423.30895237865
 21
-97196.98179289173
 31
0.0
 12
87411.30895237864
 22
-97194.98179289177
 32
0.0
 13
87411.30895237864
 23
-97194.98179289177
 33
0.0
  0
SOLID
  5
531
330
52A
100
AcDbEntity
  8
标注
 48
5.0
100
AcDbTrace
 10
88212.30895237865
 20
-97192.98179289177
 30
0.0
 11
88212.30895237865
 21
-97196.98179289173
 31
0.0
 12
88224.30895237868
 22
-97194.98179289177
 32
0.0
 13
88224.30895237868
 23
-97194.98179289177
 33
0.0
  0
MTEXT
  5
532
330
52A
100
AcDbEntity
  8
标注
 48
5.0
100
AcDbMText
 10
87817.80895237867
 20
-97194.98179289177
 30
0.0
 40
12.0
 41
0.0
 71
     5
 72
     1
  1
\A1;813 [32"]
 73
     1
 44
1.0
  0
POINT
  5
533
330
52A
100
AcDbEntity
  8
Defpoints
 62
     0
 48
5.0
100
AcDbPoint
 10
87411.30895237864
 20
-96991.98179289174
 30
0.0
  0
POINT
  5
534
330
52A
100
AcDbEntity
  8
Defpoints
 62
     0
 48
5.0
100
AcDbPoint
 10
88224.30895237868
 20
-96989.05123855794
 30
0.0
  0
POINT
  5
535
330
52A
100
AcDbEntity
  8
Defpoints
 62
     0
 48
5.0
100
AcDbPoint
 10
88224.30895237868
 20
-97194.98179289177
 30
0.0
  0
ENDBLK
  5
536
330
52A
100
AcDbEntity
  8
0
 48
5.0
100
AcDbBlockEnd
  0
BLOCK
  5
538
330
537
100
AcDbEntity
  8
0
 48
5.0
100
AcDbBlockBegin
  2
*D17
 70
     1
 10
0.0
 20
0.0
 30
0.0
  3
*D17
  1

  0
LINE
  5
539
330
537
100
AcDbEntity
  8
标注
 48
5.0
370
    -2
100
AcDbLine
 10
87557.25370272394
 20
-96573.58179289175
 30
0.0
 11
87336.30895237865
 21
-96573.58179289175
 31
0.0
  0
LINE
  5
53A
330
537
100
AcDbEntity
  8
标注
 48
5.0
370
    -2
100
AcDbLine
 10
87547.53566455516
 20
-97049.58179289175
 30
0.0
 11
87336.30895237865
 21
-97049.58179289175
 31
0.0
  0
LINE
  5
53B
330
537
100
AcDbEntity
  8
标注
 48
5.0
370
    -2
100
AcDbLine
 10
87341.30895237862
 20
-96585.58179289176
 30
0.0
 11
87341.30895237862
 21
-96758.11512622507
 31
0.0
  0
LINE
  5
53C
330
537
100
AcDbEntity
  8
标注
 48
5.0
370
    -2
100
AcDbLine
 10
87341.30895237862
 20
-97037.58179289176
 30
0.0
 11
87341.30895237862
 21
-96865.04845955839
 31
0.0
  0
SOLID
  5
53D
330
537
100
AcDbEntity
  8
标注
 48
5.0
100
AcDbTrace
 10
87339.30895237865
 20
-96585.58179289176
 30
0.0
 11
87343.30895237865
 21
-96585.58179289176
 31
0.0
 12
87341.30895237862
 22
-96573.58179289175
 32
0.0
 13
87341.30895237862
 23
-96573.58179289175
 33
0.0
  0
SOLID
  5
53E
330
537
100
AcDbEntity
  8
标注
 48
5.0
100
AcDbTrace
 10
87339.30895237865
 20
-97037.58179289176
 30
0.0
 11
87343.30895237865
 21
-97037.58179289176
 31
0.0
 12
87341.30895237862
 22
-97049.58179289175
 32
0.0
 13
87341.30895237862
 23
-97049.58179289175
 33
0.0
  0
MTEXT
  5
53F
330
537
100
AcDbEntity
  8
标注
 48
5.0
100
AcDbMText
 10
87341.30895237866
 20
-96811.58179289173
 30
0.0
 40
12.0
 41
0.0
 71
     5
 72
     1
  1
\A1;476 [18 3/4"]
 11
0.0000000000000001
 21
1.0
 31
0.0
 73
     1
 44
1.0
  0
POINT
  5
540
330
537
100
AcDbEntity
  8
Defpoints
 62
     0
 48
5.0
100
AcDbPoint
 10
87572.25370272394
 20
-96573.58179289175
 30
0.0
  0
POINT
  5
541
330
537
100
AcDbEntity
  8
Defpoints
 62
     0
 48
5.0
100
AcDbPoint
 10
87562.53566455516
 20
-97049.58179289175
 30
0.0
  0
POINT
  5
542
330
537
100
AcDbEntity
  8
Defpoints
 62
     0
 48
5.0
100
AcDbPoint
 10
87341.30895237862
 20
-97049.58179289175
 30
0.0
  0
ENDBLK
  5
543
330
537
100
AcDbEntity
  8
0
 48
5.0
100
AcDbBlockEnd
  0
BLOCK
  5
545
330
544
100
AcDbEntity
  8
0
 48
5.0
100
AcDbBlockBegin
  2
*D18
 70
     1
 10
0.0
 20
0.0
 30
0.0
  3
*D18
  1

  0
LINE
  5
546
330
544
100
AcDbEntity
  8
标注
 48
5.0
370
    -2
100
AcDbLine
 10
87479.30895237864
 20
-96548.18179289174
 30
0.0
 11
87286.30895237865
 21
-96548.18179289174
 31
0.0
  0
LINE
  5
547
330
544
100
AcDbEntity
  8
标注
 48
5.0
370
    -2
100
AcDbLine
 10
87479.30895237864
 20
-97074.98179289173
 30
0.0
 11
87286.30895237865
 21
-97074.98179289173
 31
0.0
  0
LINE
  5
548
330
544
100
AcDbEntity
  8
标注
 48
5.0
370
    -2
100
AcDbLine
 10
87291.30895237865
 20
-96560.18179289176
 30
0.0
 11
87291.30895237865
 21
-96758.31512622508
 31
0.0
  0
LINE
  5
549
330
544
100
AcDbEntity
  8
标注
 48
5.0
370
    -2
100
AcDbLine
 10
87291.30895237865
 20
-97062.98179289175
 30
0.0
 11
87291.30895237865
 21
-96864.8484595584
 31
0.0
  0
SOLID
  5
54A
330
544
100
AcDbEntity
  8
标注
 48
5.0
100
AcDbTrace
 10
87289.30895237864
 20
-96560.18179289176
 30
0.0
 11
87293.30895237865
 21
-96560.18179289176
 31
0.0
 12
87291.30895237865
 22
-96548.18179289174
 32
0.0
 13
87291.30895237865
 23
-96548.18179289174
 33
0.0
  0
SOLID
  5
54B
330
544
100
AcDbEntity
  8
标注
 48
5.0
100
AcDbTrace
 10
87289.30895237864
 20
-97062.98179289175
 30
0.0
 11
87293.30895237865
 21
-97062.98179289175
 31
0.0
 12
87291.30895237865
 22
-97074.98179289173
 32
0.0
 13
87291.30895237865
 23
-97074.98179289173
 33
0.0
  0
MTEXT
  5
54C
330
544
100
AcDbEntity
  8
标注
 48
5.0
100
AcDbMText
 10
87291.30895237867
 20
-96811.58179289173
 30
0.0
 40
12.0
 41
0.0
 71
     5
 72
     1
  1
\A1;527 [20 3/4"]
 11
0.0000000000000001
 21
1.0
 31
0.0
 73
     1
 44
1.0
  0
POINT
  5
54D
330
544
100
AcDbEntity
  8
Defpoints
 62
     0
 48
5.0
100
AcDbPoint
 10
87494.30895237864
 20
-96548.18179289174
 30
0.0
  0
POINT
  5
54E
330
544
100
AcDbEntity
  8
Defpoints
 62
     0
 48
5.0
100
AcDbPoint
 10
87494.30895237864
 20
-97074.98179289173
 30
0.0
  0
POINT
  5
54F
330
544
100
AcDbEntity
  8
Defpoints
 62
     0
 48
5.0
100
AcDbPoint
 10
87291.30895237865
 20
-97074.98179289173
 30
0.0
  0
ENDBLK
  5
550
330
544
100
AcDbEntity
  8
0
 48
5.0
100
AcDbBlockEnd
  0
BLOCK
  5
552
330
551
100
AcDbEntity
  8
0
 48
5.0
100
AcDbBlockBegin
  2
*D19
 70
     1
 10
0.0
 20
0.0
 30
0.0
  3
*D19
  1

  0
LINE
  5
553
330
551
100
AcDbEntity
  8
标注
 48
5.0
370
    -2
100
AcDbLine
 10
87376.30895237865
 20
-96115.36159666894
 30
0.0
 11
87336.30895237865
 21
-96115.36159666894
 31
0.0
  0
LINE
  5
554
330
551
100
AcDbEntity
  8
标注
 48
5.0
370
    -2
100
AcDbLine
 10
87545.470235147
 20
-96343.54778976073
 30
0.0
 11
87336.30895237865
 21
-96343.54778976073
 31
0.0
  0
LINE
  5
555
330
551
100
AcDbEntity
  8
标注
 48
5.0
370
    -2
100
AcDbLine
 10
87341.30895237862
 20
-96127.36159666894
 30
0.0
 11
87341.30895237862
 21
-96197.45469321484
 31
0.0
  0
LINE
  5
556
330
551
100
AcDbEntity
  8
标注
 48
5.0
370
    -2
100
AcDbLine
 10
87341.30895237862
 20
-96331.5477897607
 30
0.0
 11
87341.30895237862
 21
-96261.45469321482
 31
0.0
  0
SOLID
  5
557
330
551
100
AcDbEntity
  8
标注
 48
5.0
100
AcDbTrace
 10
87339.30895237865
 20
-96127.36159666894
 30
0.0
 11
87343.30895237865
 21
-96127.36159666894
 31
0.0
 12
87341.30895237862
 22
-96115.36159666894
 32
0.0
 13
87341.30895237862
 23
-96115.36159666894
 33
0.0
  0
SOLID
  5
558
330
551
100
AcDbEntity
  8
标注
 48
5.0
100
AcDbTrace
 10
87339.30895237865
 20
-96331.5477897607
 30
0.0
 11
87343.30895237865
 21
-96331.5477897607
 31
0.0
 12
87341.30895237862
 22
-96343.54778976073
 32
0.0
 13
87341.30895237862
 23
-96343.54778976073
 33
0.0
  0
MTEXT
  5
559
330
551
100
AcDbEntity
  8
标注
 48
5.0
100
AcDbMText
 10
87341.30895237866
 20
-96229.4546932148
 30
0.0
 40
12.0
 41
0.0
 71
     5
 72
     1
  1
\A1;228 [9"]
 11
0.0000000000000001
 21
1.0
 31
0.0
 73
     1
 44
1.0
  0
POINT
  5
55A
330
551
100
AcDbEntity
  8
Defpoints
 62
     0
 48
5.0
100
AcDbPoint
 10
87391.30895237865
 20
-96115.36159666894
 30
0.0
  0
POINT
  5
55B
330
551
100
AcDbEntity
  8
Defpoints
 62
     0
 48
5.0
100
AcDbPoint
 10
87560.470235147
 20
-96343.54778976073
 30
0.0
  0
POINT
  5
55C
330
551
100
AcDbEntity
  8
Defpoints
 62
     0
 48
5.0
100
AcDbPoint
 10
87341.30895237862
 20
-96343.54778976073
 30
0.0
  0
ENDBLK
  5
55D
330
551
100
AcDbEntity
  8
0
 48
5.0
100
AcDbBlockEnd
  0
BLOCK
  5
55F
330
55E
100
AcDbEntity
  8
0
 48
5.0
100
AcDbBlockBegin
  2
*D20
 70
     1
 10
0.0
 20
0.0
 30
0.0
  3
*D20
  1

  0
LINE
  5
560
330
55E
100
AcDbEntity
  8
标注
 48
5.0
370
    -2
100
AcDbLine
 10
88241.77056272008
 20
-96115.36159666892
 30
0.0
 11
88299.30895237865
 21
-96115.36159666892
 31
0.0
  0
LINE
  5
561
330
55E
100
AcDbEntity
  8
标注
 48
5.0
370
    -2
100
AcDbLine
 10
88112.28982665875
 20
-96305.42250423108
 30
0.0
 11
88299.30895237865
 21
-96305.42250423108
 31
0.0
  0
LINE
  5
562
330
55E
100
AcDbEntity
  8
标注
 48
5.0
370
    -2
100
AcDbLine
 10
88294.30895237862
 20
-96127.36159666892
 30
0.0
 11
88294.30895237862
 21
-96161.85871711667
 31
0.0
  0
LINE
  5
563
330
55E
100
AcDbEntity
  8
标注
 48
5.0
370
    -2
100
AcDbLine
 10
88294.30895237862
 20
-96293.42250423107
 30
0.0
 11
88294.30895237862
 21
-96258.92538378336
 31
0.0
  0
SOLID
  5
564
330
55E
100
AcDbEntity
  8
标注
 48
5.0
100
AcDbTrace
 10
88292.30895237865
 20
-96127.36159666892
 30
0.0
 11
88296.30895237865
 21
-96127.36159666892
 31
0.0
 12
88294.30895237862
 22
-96115.36159666892
 32
0.0
 13
88294.30895237862
 23
-96115.36159666892
 33
0.0
  0
SOLID
  5
565
330
55E
100
AcDbEntity
  8
标注
 48
5.0
100
AcDbTrace
 10
88292.30895237865
 20
-96293.42250423107
 30
0.0
 11
88296.30895237865
 21
-96293.42250423107
 31
0.0
 12
88294.30895237862
 22
-96305.42250423108
 32
0.0
 13
88294.30895237862
 23
-96305.42250423108
 33
0.0
  0
MTEXT
  5
566
330
55E
100
AcDbEntity
  8
标注
 48
5.0
100
AcDbMText
 10
88294.30895237868
 20
-96210.39205045001
 30
0.0
 40
12.0
 41
0.0
 71
     5
 72
     1
  1
\A1;190 [7 1/2"]
 11
0.0000000000000001
 21
1.0
 31
0.0
 73
     1
 44
1.0
  0
POINT
  5
567
330
55E
100
AcDbEntity
  8
Defpoints
 62
     0
 48
5.0
100
AcDbPoint
 10
88226.77056272008
 20
-96115.36159666892
 30
0.0
  0
POINT
  5
568
330
55E
100
AcDbEntity
  8
Defpoints
 62
     0
 48
5.0
100
AcDbPoint
 10
88097.28982665875
 20
-96305.42250423108
 30
0.0
  0
POINT
  5
569
330
55E
100
AcDbEntity
  8
Defpoints
 62
     0
 48
5.0
100
AcDbPoint
 10
88294.30895237862
 20
-96305.42250423108
 30
0.0
  0
ENDBLK
  5
56A
330
55E
100
AcDbEntity
  8
0
 48
5.0
100
AcDbBlockEnd
  0
BLOCK
  5
56C
330
56B
100
AcDbEntity
  8
0
 48
5.0
100
AcDbBlockBegin
  2
*D21
 70
     1
 10
0.0
 20
0.0
 30
0.0
  3
*D21
  1

  0
LINE
  5
56D
330
56B
100
AcDbEntity
  8
标注
 48
5.0
370
    -2
100
AcDbLine
 10
87938.73095956968
 20
-96989.31912848193
 30
0.0
 11
87916.60861680361
 21
-97017.71986703812
 31
0.0
  0
MTEXT
  5
56E
330
56B
100
AcDbEntity
  8
标注
 48
5.0
100
AcDbMText
 10
87971.60721895826
 20
-96947.11247534977
 30
0.0
 40
12.0
 41
0.0
 71
     5
 72
     1
  1
\A1;R90 [R3 1/2"]
 11
0.6145095212812201
 21
0.7889094043391332
 31
0.0
 73
     1
 44
1.0
  0
SOLID
  5
56F
330
56B
100
AcDbEntity
  8
标注
 48
5.0
100
AcDbTrace
 10
87915.03079799491
 20
-97016.49084799557
 30
0.0
 11
87918.18643561226
 21
-97018.9488860807
 31
0.0
 12
87909.23450254823
 22
-97027.18677989018
 32
0.0
 13
87909.23450254823
 23
-97027.18677989018
 33
0.0
  0
POINT
  5
570
330
56B
100
AcDbEntity
  8
Defpoints
 62
     0
 48
5.0
100
AcDbPoint
 10
87909.23450254823
 20
-97027.18677989018
 30
0.0
  0
POINT
  5
571
330
56B
100
AcDbEntity
  8
Defpoints
 62
     0
 48
5.0
100
AcDbPoint
 10
87964.54035946352
 20
-96956.18493349966
 30
0.0
  0
ENDBLK
  5
572
330
56B
100
AcDbEntity
  8
0
 48
5.0
100
AcDbBlockEnd
  0
BLOCK
  5
574
330
573
100
AcDbEntity
  8
0
 48
5.0
100
AcDbBlockBegin
  2
*D22
 70
     1
 10
0.0
 20
0.0
 30
0.0
  3
*D22
  1

  0
LINE
  5
575
330
573
100
AcDbEntity
  8
标注
 48
5.0
370
    -2
100
AcDbLine
 10
87777.91769572703
 20
-96966.58190949261
 30
0.0
 11
87811.77153669096
 21
-96981.67678378039
 31
0.0
  0
MTEXT
  5
576
330
573
100
AcDbEntity
  8
标注
 48
5.0
100
AcDbMText
 10
87725.15806767799
 20
-96943.05725379042
 30
0.0
 40
12.0
 41
0.0
 71
     5
 72
     1
  1
\A1;R100 [R3 7/8"]
 11
0.9133230475887234
 21
-0.4072358171173632
 31
0.0
 73
     1
 44
1.0
  0
SOLID
  5
577
330
573
100
AcDbEntity
  8
标注
 48
5.0
100
AcDbTrace
 10
87812.58600832519
 20
-96979.85013768523
 30
0.0
 11
87810.95706505674
 21
-96983.50342987556
 31
0.0
 12
87822.73141326202
 22
-96986.56361358581
 32
0.0
 13
87822.73141326202
 23
-96986.56361358581
 33
0.0
  0
POINT
  5
578
330
573
100
AcDbEntity
  8
Defpoints
 62
     0
 48
5.0
100
AcDbPoint
 10
87822.73141326202
 20
-96986.56361358581
 30
0.0
  0
POINT
  5
579
330
573
100
AcDbEntity
  8
Defpoints
 62
     0
 48
5.0
100
AcDbPoint
 10
87731.39910850316
 20
-96945.84003187408
 30
0.0
  0
ENDBLK
  5
57A
330
573
100
AcDbEntity
  8
0
 48
5.0
100
AcDbBlockEnd
  0
BLOCK
  5
57C
330
57B
100
AcDbEntity
  8
0
 48
5.0
100
AcDbBlockBegin
  2
*D23
 70
     1
 10
0.0
 20
0.0
 30
0.0
  3
*D23
  1

  0
LINE
  5
57D
330
57B
100
AcDbEntity
  8
标注
 48
5.0
370
    -2
100
AcDbLine
 10
87750.81191714509
 20
-96548.18179289174
 30
0.0
 11
87722.86214611968
 21
-96548.18179289174
 31
0.0
  0
LINE
  5
57E
330
57B
100
AcDbEntity
  8
标注
 48
5.0
370
    -2
100
AcDbLine
 10
87736.68438586893
 20
-96713.58179289175
 30
0.0
 11
87722.86214611968
 21
-96713.58179289175
 31
0.0
  0
LINE
  5
57F
330
57B
100
AcDbEntity
  8
标注
 48
5.0
370
    -2
100
AcDbLine
 10
87727.86214611969
 20
-96560.18179289176
 30
0.0
 11
87727.86214611969
 21
-96593.92382834036
 31
0.0
  0
LINE
  5
580
330
57B
100
AcDbEntity
  8
标注
 48
5.0
370
    -2
100
AcDbLine
 10
87727.86214611969
 20
-96701.58179289176
 30
0.0
 11
87727.86214611969
 21
-96690.99049500703
 31
0.0
  0
SOLID
  5
581
330
57B
100
AcDbEntity
  8
标注
 48
5.0
100
AcDbTrace
 10
87725.86214611969
 20
-96560.18179289176
 30
0.0
 11
87729.86214611968
 21
-96560.18179289176
 31
0.0
 12
87727.86214611969
 22
-96548.18179289174
 32
0.0
 13
87727.86214611969
 23
-96548.18179289174
 33
0.0
  0
SOLID
  5
582
330
57B
100
AcDbEntity
  8
标注
 48
5.0
100
AcDbTrace
 10
87725.86214611969
 20
-96701.58179289176
 30
0.0
 11
87729.86214611968
 21
-96701.58179289176
 31
0.0
 12
87727.86214611969
 22
-96713.58179289175
 32
0.0
 13
87727.86214611969
 23
-96713.58179289175
 33
0.0
  0
MTEXT
  5
583
330
57B
100
AcDbEntity
  8
标注
 48
5.0
100
AcDbMText
 10
87727.8621461197
 20
-96642.45716167366
 30
0.0
 40
12.0
 41
0.0
 71
     5
 72
     1
  1
\A1;165 [6 1/2"]
 11
0.0000000000000001
 21
1.0
 31
0.0
 73
     1
 44
1.0
  0
POINT
  5
584
330
57B
100
AcDbEntity
  8
Defpoints
 62
     0
 48
5.0
100
AcDbPoint
 10
87765.81191714509
 20
-96548.18179289174
 30
0.0
  0
POINT
  5
585
330
57B
100
AcDbEntity
  8
Defpoints
 62
     0
 48
5.0
100
AcDbPoint
 10
87751.68438586891
 20
-96713.58179289175
 30
0.0
  0
POINT
  5
586
330
57B
100
AcDbEntity
  8
Defpoints
 62
     0
 48
5.0
100
AcDbPoint
 10
87727.86214611969
 20
-96713.58179289175
 30
0.0
  0
ENDBLK
  5
587
330
57B
100
AcDbEntity
  8
0
 48
5.0
100
AcDbBlockEnd
  0
BLOCK
  5
589
330
588
100
AcDbEntity
  8
0
 48
5.0
100
AcDbBlockBegin
  2
*D24
 70
     1
 10
0.0
 20
0.0
 30
0.0
  3
*D24
  1

  0
LINE
  5
58A
330
588
100
AcDbEntity
  8
标注
 48
5.0
370
    -2
100
AcDbLine
 10
88047.44667383351
 20
-96604.18179289177
 30
0.0
 11
87936.33129279818
 21
-96604.18179289177
 31
0.0
  0
LINE
  5
58B
330
588
100
AcDbEntity
  8
标注
 48
5.0
370
    -2
100
AcDbLine
 10
87956.50853301593
 20
-96769.58179289176
 30
0.0
 11
87936.33129279818
 21
-96769.58179289176
 31
0.0
  0
LINE
  5
58C
330
588
100
AcDbEntity
  8
标注
 48
5.0
370
    -2
100
AcDbLine
 10
87941.33129279817
 20
-96616.18179289176
 30
0.0
 11
87941.33129279817
 21
-96652.44222782648
 31
0.0
  0
LINE
  5
58D
330
588
100
AcDbEntity
  8
标注
 48
5.0
370
    -2
100
AcDbLine
 10
87941.33129279817
 20
-96757.58179289175
 30
0.0
 11
87941.33129279817
 21
-96749.50889449316
 31
0.0
  0
SOLID
  5
58E
330
588
100
AcDbEntity
  8
标注
 48
5.0
100
AcDbTrace
 10
87939.33129279817
 20
-96616.18179289176
 30
0.0
 11
87943.33129279818
 21
-96616.18179289176
 31
0.0
 12
87941.33129279817
 22
-96604.18179289177
 32
0.0
 13
87941.33129279817
 23
-96604.18179289177
 33
0.0
  0
SOLID
  5
58F
330
588
100
AcDbEntity
  8
标注
 48
5.0
100
AcDbTrace
 10
87939.33129279817
 20
-96757.58179289175
 30
0.0
 11
87943.33129279818
 21
-96757.58179289175
 31
0.0
 12
87941.33129279817
 22
-96769.58179289176
 32
0.0
 13
87941.33129279817
 23
-96769.58179289176
 33
0.0
  0
MTEXT
  5
590
330
588
100
AcDbEntity
  8
标注
 48
5.0
100
AcDbMText
 10
87941.33129279819
 20
-96700.97556115981
 30
0.0
 40
12.0
 41
0.0
 71
     5
 72
     1
  1
\A1;165 [6 1/2"]
 11
0.0000000000000001
 21
1.0
 31
0.0
 73
     1
 44
1.0
  0
POINT
  5
591
330
588
100
AcDbEntity
  8
Defpoints
 62
     0
 48
5.0
100
AcDbPoint
 10
88062.44667383351
 20
-96604.18179289177
 30
0.0
  0
POINT
  5
592
330
588
100
AcDbEntity
  8
Defpoints
 62
     0
 48
5.0
100
AcDbPoint
 10
87971.50853301593
 20
-96769.58179289176
 30
0.0
  0
POINT
  5
593
330
588
100
AcDbEntity
  8
Defpoints
 62
     0
 48
5.0
100
AcDbPoint
 10
87941.33129279817
 20
-96769.58179289176
 30
0.0
  0
ENDBLK
  5
594
330
588
100
AcDbEntity
  8
0
 48
5.0
100
AcDbBlockEnd
  0
BLOCK
  5
596
330
595
100
AcDbEntity
  8
0
 48
5.0
100
AcDbBlockBegin
  2
*D25
 70
     1
 10
0.0
 20
0.0
 30
0.0
  3
*D25
  1

  0
LINE
  5
597
330
595
100
AcDbEntity
  8
标注
 48
5.0
370
    -2
100
AcDbLine
 10
87411.30895237864
 20
-96806.01017184747
 30
0.0
 11
87411.30895237864
 21
-96798.97738007332
 31
0.0
  0
LINE
  5
598
330
595
100
AcDbEntity
  8
标注
 48
5.0
370
    -2
100
AcDbLine
 10
87636.73296810191
 20
-96802.23598604932
 30
0.0
 11
87636.73296810191
 21
-96798.97738007332
 31
0.0
  0
LINE
  5
599
330
595
100
AcDbEntity
  8
标注
 48
5.0
370
    -2
100
AcDbLine
 10
87423.30895237865
 20
-96803.97738007334
 30
0.0
 11
87474.95429357364
 21
-96803.97738007334
 31
0.0
  0
LINE
  5
59A
330
595
100
AcDbEntity
  8
标注
 48
5.0
370
    -2
100
AcDbLine
 10
87624.73296810195
 20
-96803.97738007334
 30
0.0
 11
87573.08762690698
 21
-96803.97738007334
 31
0.0
  0
SOLID
  5
59B
330
595
100
AcDbEntity
  8
标注
 48
5.0
100
AcDbTrace
 10
87423.30895237865
 20
-96801.97738007334
 30
0.0
 11
87423.30895237865
 21
-96805.97738007334
 31
0.0
 12
87411.30895237864
 22
-96803.97738007334
 32
0.0
 13
87411.30895237864
 23
-96803.97738007334
 33
0.0
  0
SOLID
  5
59C
330
595
100
AcDbEntity
  8
标注
 48
5.0
100
AcDbTrace
 10
87624.73296810195
 20
-96801.97738007334
 30
0.0
 11
87624.73296810195
 21
-96805.97738007334
 31
0.0
 12
87636.73296810191
 22
-96803.97738007334
 32
0.0
 13
87636.73296810191
 23
-96803.97738007334
 33
0.0
  0
MTEXT
  5
59D
330
595
100
AcDbEntity
  8
标注
 48
5.0
100
AcDbMText
 10
87524.02096024033
 20
-96803.97738007334
 30
0.0
 40
12.0
 41
0.0
 71
     5
 72
     1
  1
\A1;225 [8 7/8"]
 73
     1
 44
1.0
  0
POINT
  5
59E
330
595
100
AcDbEntity
  8
Defpoints
 62
     0
 48
5.0
100
AcDbPoint
 10
87411.30895237864
 20
-96821.01017184747
 30
0.0
  0
POINT
  5
59F
330
595
100
AcDbEntity
  8
Defpoints
 62
     0
 48
5.0
100
AcDbPoint
 10
87636.73296810191
 20
-96817.23598604932
 30
0.0
  0
POINT
  5
5A0
330
595
100
AcDbEntity
  8
Defpoints
 62
     0
 48
5.0
100
AcDbPoint
 10
87636.73296810191
 20
-96803.97738007334
 30
0.0
  0
ENDBLK
  5
5A1
330
595
100
AcDbEntity
  8
0
 48
5.0
100
AcDbBlockEnd
  0
BLOCK
  5
5A3
330
5A2
100
AcDbEntity
  8
0
 48
5.0
100
AcDbBlockBegin
  2
*D26
 70
     1
 10
0.0
 20
0.0
 30
0.0
  3
*D26
  1

  0
LINE
  5
5A4
330
5A2
100
AcDbEntity
  8
标注
 48
5.0
370
    -2
100
AcDbLine
 10
88034.55796810192
 20
-96820.11741077117
 30
0.0
 11
88034.55796810192
 21
-96861.83281360703
 31
0.0
  0
LINE
  5
5A5
330
5A2
100
AcDbEntity
  8
标注
 48
5.0
370
    -2
100
AcDbLine
 10
88224.30895237868
 20
-96820.11741077117
 30
0.0
 11
88224.30895237868
 21
-96861.83281360703
 31
0.0
  0
LINE
  5
5A6
330
5A2
100
AcDbEntity
  8
标注
 48
5.0
370
    -2
100
AcDbLine
 10
88046.55796810196
 20
-96856.83281360704
 30
0.0
 11
88080.90012690698
 21
-96856.83281360704
 31
0.0
  0
LINE
  5
5A7
330
5A2
100
AcDbEntity
  8
标注
 48
5.0
370
    -2
100
AcDbLine
 10
88212.30895237867
 20
-96856.83281360704
 30
0.0
 11
88177.96679357366
 21
-96856.83281360704
 31
0.0
  0
SOLID
  5
5A8
330
5A2
100
AcDbEntity
  8
标注
 48
5.0
100
AcDbTrace
 10
88046.55796810196
 20
-96854.83281360703
 30
0.0
 11
88046.55796810196
 21
-96858.83281360704
 31
0.0
 12
88034.55796810192
 22
-96856.83281360704
 32
0.0
 13
88034.55796810192
 23
-96856.83281360704
 33
0.0
  0
SOLID
  5
5A9
330
5A2
100
AcDbEntity
  8
标注
 48
5.0
100
AcDbTrace
 10
88212.30895237867
 20
-96854.83281360703
 30
0.0
 11
88212.30895237867
 21
-96858.83281360704
 31
0.0
 12
88224.30895237868
 22
-96856.83281360704
 32
0.0
 13
88224.30895237868
 23
-96856.83281360704
 33
0.0
  0
MTEXT
  5
5AA
330
5A2
100
AcDbEntity
  8
标注
 48
5.0
100
AcDbMText
 10
88129.43346024031
 20
-96856.83281360704
 30
0.0
 40
12.0
 41
0.0
 71
     5
 72
     1
  1
\A1;190 [7 1/2"]
 73
     1
 44
1.0
  0
POINT
  5
5AB
330
5A2
100
AcDbEntity
  8
Defpoints
 62
     0
 48
5.0
100
AcDbPoint
 10
88034.55796810192
 20
-96805.11741077117
 30
0.0
  0
POINT
  5
5AC
330
5A2
100
AcDbEntity
  8
Defpoints
 62
     0
 48
5.0
100
AcDbPoint
 10
88224.30895237868
 20
-96805.11741077117
 30
0.0
  0
POINT
  5
5AD
330
5A2
100
AcDbEntity
  8
Defpoints
 62
     0
 48
5.0
100
AcDbPoint
 10
88224.30895237868
 20
-96856.83281360704
 30
0.0
  0
ENDBLK
  5
5AE
330
5A2
100
AcDbEntity
  8
0
 48
5.0
100
AcDbBlockEnd
  0
BLOCK
  5
5B0
330
5AF
100
AcDbEntity
  8
0
 48
5.0
100
AcDbBlockBegin
  2
*D27
 70
     1
 10
0.0
 20
0.0
 30
0.0
  3
*D27
  1

  0
LINE
  5
5B1
330
5AF
100
AcDbEntity
  8
标注
 48
5.0
370
    -2
100
AcDbLine
 10
88198.90895237865
 20
-97012.78490425938
 30
0.0
 11
88198.90895237865
 21
-97149.98179289176
 31
0.0
  0
LINE
  5
5B2
330
5AF
100
AcDbEntity
  8
标注
 48
5.0
370
    -2
100
AcDbLine
 10
88224.30895237868
 20
-97024.05123855793
 30
0.0
 11
88224.30895237868
 21
-97149.98179289176
 31
0.0
  0
LINE
  5
5B3
330
5AF
100
AcDbEntity
  8
标注
 48
5.0
370
    -2
100
AcDbLine
 10
88210.90895237865
 20
-97144.98179289174
 30
0.0
 11
88212.30895237865
 21
-97144.98179289174
 31
0.0
  0
LINE
  5
5B4
330
5AF
100
AcDbEntity
  8
标注
 48
5.0
370
    -2
100
AcDbLine
 10
88224.30895237868
 20
-97144.98179289174
 30
0.0
 11
88236.30895237867
 21
-97144.98179289174
 31
0.0
  0
SOLID
  5
5B5
330
5AF
100
AcDbEntity
  8
标注
 48
5.0
100
AcDbTrace
 10
88210.90895237865
 20
-97142.98179289173
 30
0.0
 11
88210.90895237865
 21
-97146.98179289175
 31
0.0
 12
88198.90895237865
 22
-97144.98179289174
 32
0.0
 13
88198.90895237865
 23
-97144.98179289174
 33
0.0
  0
SOLID
  5
5B6
330
5AF
100
AcDbEntity
  8
标注
 48
5.0
100
AcDbTrace
 10
88212.30895237865
 20
-97142.98179289173
 30
0.0
 11
88212.30895237865
 21
-97146.98179289175
 31
0.0
 12
88224.30895237868
 22
-97144.98179289174
 32
0.0
 13
88224.30895237868
 23
-97144.98179289174
 33
0.0
  0
MTEXT
  5
5B7
330
5AF
100
AcDbEntity
  8
标注
 48
5.0
100
AcDbMText
 10
88272.57561904533
 20
-97144.98179289174
 30
0.0
 40
12.0
 41
0.0
 71
     5
 72
     1
  1
\A1;25,4 [1"]
 73
     1
 44
1.0
  0
POINT
  5
5B8
330
5AF
100
AcDbEntity
  8
Defpoints
 62
     0
 48
5.0
100
AcDbPoint
 10
88198.90895237865
 20
-96997.78490425938
 30
0.0
  0
POINT
  5
5B9
330
5AF
100
AcDbEntity
  8
Defpoints
 62
     0
 48
5.0
100
AcDbPoint
 10
88224.30895237868
 20
-97009.05123855793
 30
0.0
  0
POINT
  5
5BA
330
5AF
100
AcDbEntity
  8
Defpoints
 62
     0
 48
5.0
100
AcDbPoint
 10
88224.30895237868
 20
-97144.98179289174
 30
0.0
  0
ENDBLK
  5
5BB
330
5AF
100
AcDbEntity
  8
0
 48
5.0
100
AcDbBlockEnd
  0
BLOCK
  5
5BD
330
5BC
100
AcDbEntity
  8
0
 48
5.0
100
AcDbBlockBegin
  2
*D28
 70
     1
 10
0.0
 20
0.0
 30
0.0
  3
*D28
  1

  0
LINE
  5
5BE
330
5BC
100
AcDbEntity
  8
标注
 48
5.0
370
    -2
100
AcDbLine
 10
87836.70895237866
 20
-96826.58179289175
 30
0.0
 11
87836.70895237866
 21
-96826.05805489306
 31
0.0
  0
LINE
  5
5BF
330
5BC
100
AcDbEntity
  8
标注
 48
5.0
370
    -2
100
AcDbLine
 10
87868.90895237865
 20
-96824.58179289175
 30
0.0
 11
87868.90895237865
 21
-96816.05805489306
 31
0.0
  0
LINE
  5
5C0
330
5BC
100
AcDbEntity
  8
标注
 48
5.0
370
    -2
100
AcDbLine
 10
87856.90895237864
 20
-96821.05805489307
 30
0.0
 11
87848.70895237865
 21
-96821.05805489307
 31
0.0
  0
LINE
  5
5C1
330
5BC
100
AcDbEntity
  8
标注
 48
5.0
370
    -2
100
AcDbLine
 10
87836.70895237866
 20
-96821.05805489307
 30
0.0
 11
87811.39228571198
 21
-96821.05805489307
 31
0.0
  0
SOLID
  5
5C2
330
5BC
100
AcDbEntity
  8
标注
 48
5.0
100
AcDbTrace
 10
87856.90895237864
 20
-96819.05805489304
 30
0.0
 11
87856.90895237864
 21
-96823.05805489306
 31
0.0
 12
87868.90895237865
 22
-96821.05805489307
 32
0.0
 13
87868.90895237865
 23
-96821.05805489307
 33
0.0
  0
SOLID
  5
5C3
330
5BC
100
AcDbEntity
  8
标注
 48
5.0
100
AcDbTrace
 10
87848.70895237865
 20
-96819.05805489304
 30
0.0
 11
87848.70895237865
 21
-96823.05805489306
 31
0.0
 12
87836.70895237866
 22
-96821.05805489307
 32
0.0
 13
87836.70895237866
 23
-96821.05805489307
 33
0.0
  0
MTEXT
  5
5C4
330
5BC
100
AcDbEntity
  8
标注
 48
5.0
100
AcDbMText
 10
87758.12561904533
 20
-96821.05805489307
 30
0.0
 40
12.0
 41
0.0
 71
     5
 72
     1
  1
\A1;32,2 [1 1/4"]
 73
     1
 44
1.0
  0
POINT
  5
5C5
330
5BC
100
AcDbEntity
  8
Defpoints
 62
     0
 48
5.0
100
AcDbPoint
 10
87836.70895237866
 20
-96811.58179289175
 30
0.0
  0
POINT
  5
5C6
330
5BC
100
AcDbEntity
  8
Defpoints
 62
     0
 48
5.0
100
AcDbPoint
 10
87868.90895237865
 20
-96839.58179289176
 30
0.0
  0
POINT
  5
5C7
330
5BC
100
AcDbEntity
  8
Defpoints
 62
     0
 48
5.0
100
AcDbPoint
 10
87868.90895237865
 20
-96821.05805489307
 30
0.0
  0
ENDBLK
  5
5C8
330
5BC
100
AcDbEntity
  8
0
 48
5.0
100
AcDbBlockEnd
  0
BLOCK
  5
5CA
330
5C9
100
AcDbEntity
  8
0
 48
5.0
100
AcDbBlockBegin
  2
*D29
 70
     1
 10
0.0
 20
0.0
 30
0.0
  3
*D29
  1

  0
LINE
  5
5CB
330
5C9
100
AcDbEntity
  8
标注
 48
5.0
370
    -2
100
AcDbLine
 10
168271.4085329475
 20
-97074.9942646691
 30
0.0
 11
168436.3596026344
 21
-97075.13141359408
 31
0.0
  0
LINE
  5
5CC
330
5C9
100
AcDbEntity
  8
标注
 48
5.0
370
    -2
100
AcDbLine
 10
168271.4085381323
 20
-97074.98179289084
 30
0.0
 11
168436.3596648356
 21
-97074.98179289084
 31
0.0
  0
ARC
  5
5CD
330
5C9
100
AcDbEntity
  8
标注
 48
5.0
370
    -2
100
AcDbCircle
 10
168256.4085381322
 20
-97074.98179289084
 30
0.0
 40
174.9511267033994
100
AcDbArc
 50
352.0862832012406
 51
359.9523613107115
  0
ARC
  5
5CE
330
5C9
100
AcDbEntity
  8
标注
 48
5.0
370
    -2
100
AcDbCircle
 10
168256.4085381322
 20
-97074.98179289084
 30
0.0
 40
174.9511267033994
100
AcDbArc
 50
352.0909177485297
 51
356.0216395296205
  0
ARC
  5
5CF
330
5C9
100
AcDbEntity
  8
标注
 48
5.0
370
    -2
100
AcDbCircle
 10
168256.4085381322
 20
-97074.98179289084
 30
0.0
 40
174.9511267033994
100
AcDbArc
 50
3.930721781091619
 51
7.861443562182442
  0
ARC
  5
5D0
330
5C9
100
AcDbEntity
  8
标注
 48
5.0
370
    -2
100
AcDbCircle
 10
168256.4085381322
 20
-97074.98179289084
 30
0.0
 40
174.9511267033994
100
AcDbArc
 50
359.9523613107115
 51
0.0000000000006395
  0
SOLID
  5
5D1
330
5C9
100
AcDbEntity
  8
标注
 48
5.0
100
AcDbTrace
 10
168428.9393236798
 20
-97087.04959844585
 30
0.0
 11
168432.9368552122
 21
-97087.19010341805
 31
0.0
 12
168431.3596043627
 22
-97075.12725633463
 32
0.0
 13
168431.3596043627
 23
-97075.12725633463
 33
0.0
  0
SOLID
  5
5D2
330
5C9
100
AcDbEntity
  8
标注
 48
5.0
100
AcDbTrace
 10
168432.9469448169
 20
-97062.9202613852
 30
0.0
 11
168428.9492978431
 21
-97063.05744255375
 31
0.0
 12
168431.3596648356
 22
-97074.98179289084
 32
0.0
 13
168431.3596648356
 23
-97074.98179289084
 33
0.0
  0
MTEXT
  5
5D3
330
5C9
100
AcDbEntity
  8
标注
 48
5.0
100
AcDbMText
 10
168427.9862703105
 20
-97111.35126574076
 30
0.0
 40
12.0
 41
0.0
 71
     5
 72
     1
  1
\A1;0°
 11
0.137681673331493
 21
0.9904765301755718
 31
0.0
 73
     1
 44
1.0
  0
POINT
  5
5D4
330
5C9
100
AcDbEntity
  8
Defpoints
 62
     0
 48
5.0
100
AcDbPoint
 10
168431.3596581164
 20
-97075.03028071039
 30
0.0
  0
POINT
  5
5D5
330
5C9
100
AcDbEntity
  8
Defpoints
 62
     0
 48
5.0
100
AcDbPoint
 10
87812.71510905881
 20
-97008.09670934461
 30
0.0
  0
POINT
  5
5D6
330
5C9
100
AcDbEntity
  8
Defpoints
 62
     0
 48
5.0
100
AcDbPoint
 10
87494.30895237864
 20
-97074.98179289173
 30
0.0
  0
POINT
  5
5D7
330
5C9
100
AcDbEntity
  8
Defpoints
 62
     0
 48
5.0
100
AcDbPoint
 10
88148.30895237868
 20
-97074.98179289173
 30
0.0
  0
POINT
  5
5D8
330
5C9
100
AcDbEntity
  8
Defpoints
 62
     0
 48
5.0
100
AcDbPoint
 10
87887.22980192813
 20
-97008.15866474775
 30
0.0
  0
ENDBLK
  5
5D9
330
5C9
100
AcDbEntity
  8
0
 48
5.0
100
AcDbBlockEnd
  0
BLOCK
  5
5DB
330
5DA
100
AcDbEntity
  8
0
 48
5.0
100
AcDbBlockBegin
  2
*D30
 70
     1
 10
0.0
 20
0.0
 30
0.0
  3
*D30
  1

  0
LINE
  5
5DC
330
5DA
100
AcDbEntity
  8
标注
 48
5.0
370
    -2
100
AcDbLine
 10
87491.29086080086
 20
-97049.58179289175
 30
0.0
 11
87336.30895237865
 21
-97049.58179289175
 31
0.0
  0
LINE
  5
5DD
330
5DA
100
AcDbEntity
  8
标注
 48
5.0
370
    -2
100
AcDbLine
 10
87479.30895237864
 20
-97074.98179289173
 30
0.0
 11
87336.30895237865
 21
-97074.98179289173
 31
0.0
  0
LINE
  5
5DE
330
5DA
100
AcDbEntity
  8
标注
 48
5.0
370
    -2
100
AcDbLine
 10
87341.30895237862
 20
-97061.58179289175
 30
0.0
 11
87341.30895237862
 21
-97062.98179289175
 31
0.0
  0
LINE
  5
5DF
330
5DA
100
AcDbEntity
  8
标注
 48
5.0
370
    -2
100
AcDbLine
 10
87341.30895237862
 20
-97074.98179289173
 30
0.0
 11
87341.30895237862
 21
-97086.98179289177
 31
0.0
  0
SOLID
  5
5E0
330
5DA
100
AcDbEntity
  8
标注
 48
5.0
100
AcDbTrace
 10
87339.30895237865
 20
-97061.58179289175
 30
0.0
 11
87343.30895237865
 21
-97061.58179289175
 31
0.0
 12
87341.30895237862
 22
-97049.58179289175
 32
0.0
 13
87341.30895237862
 23
-97049.58179289175
 33
0.0
  0
SOLID
  5
5E1
330
5DA
100
AcDbEntity
  8
标注
 48
5.0
100
AcDbTrace
 10
87339.30895237865
 20
-97062.98179289175
 30
0.0
 11
87343.30895237865
 21
-97062.98179289175
 31
0.0
 12
87341.30895237862
 22
-97074.98179289173
 32
0.0
 13
87341.30895237862
 23
-97074.98179289173
 33
0.0
  0
MTEXT
  5
5E2
330
5DA
100
AcDbEntity
  8
标注
 48
5.0
100
AcDbMText
 10
87341.30895237866
 20
-97114.71512622509
 30
0.0
 40
12.0
 41
0.0
 71
     5
 72
     1
  1
\A1;25 [1"]
 11
0.0000000000000001
 21
1.0
 31
0.0
 73
     1
 44
1.0
  0
POINT
  5
5E3
330
5DA
100
AcDbEntity
  8
Defpoints
 62
     0
 48
5.0
100
AcDbPoint
 10
87506.29086080087
 20
-97049.58179289175
 30
0.0
  0
POINT
  5
5E4
330
5DA
100
AcDbEntity
  8
Defpoints
 62
     0
 48
5.0
100
AcDbPoint
 10
87494.30895237864
 20
-97074.98179289173
 30
0.0
  0
POINT
  5
5E5
330
5DA
100
AcDbEntity
  8
Defpoints
 62
     0
 48
5.0
100
AcDbPoint
 10
87341.30895237862
 20
-97074.98179289173
 30
0.0
  0
ENDBLK
  5
5E6
330
5DA
100
AcDbEntity
  8
0
 48
5.0
100
AcDbBlockEnd
  0
BLOCK
  5
5E8
330
5E7
100
AcDbEntity
  8
0
 48
5.0
100
AcDbBlockBegin
  2
*D31
 70
     1
 10
0.0
 20
0.0
 30
0.0
  3
*D31
  1

  0
LINE
  5
5E9
330
5E7
100
AcDbEntity
  8
标注
 48
5.0
370
    -2
100
AcDbLine
 10
88148.74198210484
 20
-96629.58179289175
 30
0.0
 11
88299.30895237865
 21
-96629.58179289175
 31
0.0
  0
LINE
  5
5EA
330
5E7
100
AcDbEntity
  8
标注
 48
5.0
370
    -2
100
AcDbLine
 10
88183.30895237865
 20
-96604.18179289177
 30
0.0
 11
88299.30895237865
 21
-96604.18179289177
 31
0.0
  0
LINE
  5
5EB
330
5E7
100
AcDbEntity
  8
标注
 48
5.0
370
    -2
100
AcDbLine
 10
88294.30895237862
 20
-96617.58179289176
 30
0.0
 11
88294.30895237862
 21
-96616.18179289174
 31
0.0
  0
LINE
  5
5EC
330
5E7
100
AcDbEntity
  8
标注
 48
5.0
370
    -2
100
AcDbLine
 10
88294.30895237862
 20
-96604.18179289177
 30
0.0
 11
88294.30895237862
 21
-96592.18179289174
 31
0.0
  0
SOLID
  5
5ED
330
5E7
100
AcDbEntity
  8
标注
 48
5.0
100
AcDbTrace
 10
88292.30895237865
 20
-96617.58179289176
 30
0.0
 11
88296.30895237865
 21
-96617.58179289176
 31
0.0
 12
88294.30895237862
 22
-96629.58179289175
 32
0.0
 13
88294.30895237862
 23
-96629.58179289175
 33
0.0
  0
SOLID
  5
5EE
330
5E7
100
AcDbEntity
  8
标注
 48
5.0
100
AcDbTrace
 10
88292.30895237865
 20
-96616.18179289174
 30
0.0
 11
88296.30895237865
 21
-96616.18179289174
 31
0.0
 12
88294.30895237862
 22
-96604.18179289177
 32
0.0
 13
88294.30895237862
 23
-96604.18179289177
 33
0.0
  0
MTEXT
  5
5EF
330
5E7
100
AcDbEntity
  8
标注
 48
5.0
100
AcDbMText
 10
88294.30895237868
 20
-96564.44845955839
 30
0.0
 40
12.0
 41
0.0
 71
     5
 72
     1
  1
\A1;25 [1"]
 11
0.0000000000000001
 21
1.0
 31
0.0
 73
     1
 44
1.0
  0
POINT
  5
5F0
330
5E7
100
AcDbEntity
  8
Defpoints
 62
     0
 48
5.0
100
AcDbPoint
 10
88133.74198210484
 20
-96629.58179289175
 30
0.0
  0
POINT
  5
5F1
330
5E7
100
AcDbEntity
  8
Defpoints
 62
     0
 48
5.0
100
AcDbPoint
 10
88168.30895237865
 20
-96604.18179289177
 30
0.0
  0
POINT
  5
5F2
330
5E7
100
AcDbEntity
  8
Defpoints
 62
     0
 48
5.0
100
AcDbPoint
 10
88294.30895237862
 20
-96604.18179289177
 30
0.0
  0
ENDBLK
  5
5F3
330
5E7
100
AcDbEntity
  8
0
 48
5.0
100
AcDbBlockEnd
  0
BLOCK
  5
5F5
330
5F4
100
AcDbEntity
  8
0
 48
5.0
100
AcDbBlockBegin
  2
*D32
 70
     1
 10
0.0
 20
0.0
 30
0.0
  3
*D32
  1

  0
LINE
  5
5F6
330
5F4
100
AcDbEntity
  8
标注
 48
5.0
370
    -2
100
AcDbLine
 10
87472.87223721526
 20
-96296.15516823015
 30
0.0
 11
87455.50447278327
 21
-96308.15193840993
 31
0.0
  0
MTEXT
  5
5F7
330
5F4
100
AcDbEntity
  8
标注
 48
5.0
100
AcDbMText
 10
87502.84928660203
 20
-96275.4485439799
 30
0.0
 40
12.0
 41
0.0
 71
     5
 72
     1
  1
\A1;R50 [R2"]
 11
0.8227918404419815
 21
0.5683428430992131
 31
0.0
 73
     1
 44
1.0
  0
SOLID
  5
5F8
330
5F4
100
AcDbEntity
  8
标注
 48
5.0
100
AcDbTrace
 10
87454.36778709708
 20
-96306.50635472902
 30
0.0
 11
87456.64115846947
 21
-96309.7975220908
 31
0.0
 12
87445.63097069795
 22
-96314.97205252713
 32
0.0
 13
87445.63097069795
 23
-96314.97205252713
 33
0.0
  0
POINT
  5
5F9
330
5F4
100
AcDbEntity
  8
Defpoints
 62
     0
 48
5.0
100
AcDbPoint
 10
87445.63097069795
 20
-96314.97205252713
 30
0.0
  0
POINT
  5
5FA
330
5F4
100
AcDbEntity
  8
Defpoints
 62
     0
 48
5.0
100
AcDbPoint
 10
87486.77056272008
 20
-96286.55491037212
 30
0.0
  0
ENDBLK
  5
5FB
330
5F4
100
AcDbEntity
  8
0
 48
5.0
100
AcDbBlockEnd
  0
BLOCK
  5
5FD
330
5FC
100
AcDbEntity
  8
0
 48
5.0
100
AcDbBlockBegin
  2
*D33
 70
     1
 10
0.0
 20
0.0
 30
0.0
  3
*D33
  1

  0
LINE
  5
5FE
330
5FC
100
AcDbEntity
  8
标注
 48
5.0
370
    -2
100
AcDbLine
 10
87904.06151042288
 20
-96262.14418529825
 30
0.0
 11
87888.17989746343
 21
-96276.0487207424
 31
0.0
  0
MTEXT
  5
5FF
330
5FC
100
AcDbEntity
  8
标注
 48
5.0
100
AcDbMText
 10
87931.4734377259
 20
-96238.14472656873
 30
0.0
 40
12.0
 41
0.0
 71
     5
 72
     1
  1
\A1;R50 [R2"]
 11
0.7523859278055843
 21
0.6587225634818731
 31
0.0
 73
     1
 44
1.0
  0
SOLID
  5
600
330
5FC
100
AcDbEntity
  8
标注
 48
5.0
100
AcDbTrace
 10
87886.86245233646
 20
-96274.5439488868
 30
0.0
 11
87889.49734259039
 21
-96277.55349259805
 31
0.0
 12
87879.15126632977
 22
-96283.9533915042
 32
0.0
 13
87879.15126632977
 23
-96283.9533915042
 33
0.0
  0
POINT
  5
601
330
5FC
100
AcDbEntity
  8
Defpoints
 62
     0
 48
5.0
100
AcDbPoint
 10
87879.15126632977
 20
-96283.9533915042
 30
0.0
  0
POINT
  5
602
330
5FC
100
AcDbEntity
  8
Defpoints
 62
     0
 48
5.0
100
AcDbPoint
 10
87916.77056272007
 20
-96251.0172633301
 30
0.0
  0
ENDBLK
  5
603
330
5FC
100
AcDbEntity
  8
0
 48
5.0
100
AcDbBlockEnd
  0
BLOCK
  5
70A
330
6FF
100
AcDbEntity
  8
0
100
AcDbBlockBegin
  2
*D34
 70
     1
 10
0.0
 20
0.0
 30
0.0
  3
*D34
  1

  0
LINE
  5
11D2
330
6FF
100
AcDbEntity
  8
标注
370
    -2
100
AcDbLine
 10
347.2572220194801
 20
174.9450475949567
 30
0.0
 11
356.9491905234169
 21
174.9450475949567
 31
0.0
  0
LINE
  5
11D3
330
6FF
100
AcDbEntity
  8
标注
370
    -2
100
AcDbLine
 10
348.6139000237869
 20
158.4096145240906
 30
0.0
 11
356.9491905234169
 21
158.4096145240906
 31
0.0
  0
LINE
  5
11D4
330
6FF
100
AcDbEntity
  8
标注
370
    -2
100
AcDbLine
 10
356.6291905234169
 20
174.2950475949567
 30
0.0
 11
356.6291905234169
 21
168.7189977261903
 31
0.0
  0
LINE
  5
11D5
330
6FF
100
AcDbEntity
  8
标注
370
    -2
100
AcDbLine
 10
356.6291905234169
 20
159.0596145240906
 30
0.0
 11
356.6291905234169
 21
164.635664392857
 31
0.0
  0
SOLID
  5
11D6
330
6FF
100
AcDbEntity
  8
标注
100
AcDbTrace
 10
356.5208571900836
 20
174.2950475949567
 30
0.0
 11
356.7375238567503
 21
174.2950475949567
 31
0.0
 12
356.6291905234169
 22
174.9450475949567
 32
0.0
 13
356.6291905234169
 23
174.9450475949567
 33
0.0
  0
SOLID
  5
11D7
330
6FF
100
AcDbEntity
  8
标注
100
AcDbTrace
 10
356.5208571900836
 20
159.0596145240906
 30
0.0
 11
356.7375238567503
 21
159.0596145240906
 31
0.0
 12
356.6291905234169
 22
158.4096145240906
 32
0.0
 13
356.6291905234169
 23
158.4096145240906
 33
0.0
  0
MTEXT
  5
11D8
330
6FF
100
AcDbEntity
  8
标注
100
AcDbMText
 10
356.6291905234169
 20
166.6773310595237
 30
0.0
 40
0.65
 41
0.0
 71
     5
 72
     1
  1
\A1;16 1/2"
 11
0.0000000000000001
 21
1.0
 31
0.0
 73
     1
 44
1.0
  0
POINT
  5
11D9
330
6FF
100
AcDbEntity
  8
Defpoints
 62
     0
100
AcDbPoint
 10
346.3772220194802
 20
174.9450475949567
 30
0.0
  0
POINT
  5
11DA
330
6FF
100
AcDbEntity
  8
Defpoints
 62
     0
100
AcDbPoint
 10
347.7339000237869
 20
158.4096145240906
 30
0.0
  0
POINT
  5
11DB
330
6FF
100
AcDbEntity
  8
Defpoints
 62
     0
100
AcDbPoint
 10
356.6291905234169
 20
158.4096145240906
 30
0.0
  0
ENDBLK
  5
70B
330
6FF
100
AcDbEntity
  8
0
100
AcDbBlockEnd
  0
BLOCK
  5
717
330
70C
100
AcDbEntity
  8
0
100
AcDbBlockBegin
  2
*D35
 70
     1
 10
0.0
 20
0.0
 30
0.0
  3
*D35
  1

  0
LINE
  5
11BD
330
70C
100
AcDbEntity
  8
标注
370
    -2
100
AcDbLine
 10
347.2572220194858
 20
175.9450475949567
 30
0.0
 11
358.9176944604242
 21
175.9450475949567
 31
0.0
  0
LINE
  5
11BE
330
70C
100
AcDbEntity
  8
标注
370
    -2
100
AcDbLine
 10
347.2572220194793
 20
157.4096145240906
 30
0.0
 11
358.9176944604242
 21
157.4096145240906
 31
0.0
  0
LINE
  5
11BF
330
70C
100
AcDbEntity
  8
标注
370
    -2
100
AcDbLine
 10
358.5976944604242
 20
175.2950475949567
 30
0.0
 11
358.5976944604242
 21
168.7189977261903
 31
0.0
  0
LINE
  5
11C0
330
70C
100
AcDbEntity
  8
标注
370
    -2
100
AcDbLine
 10
358.5976944604242
 20
158.0596145240906
 30
0.0
 11
358.5976944604242
 21
164.635664392857
 31
0.0
  0
SOLID
  5
11C1
330
70C
100
AcDbEntity
  8
标注
100
AcDbTrace
 10
358.4893611270909
 20
175.2950475949567
 30
0.0
 11
358.7060277937577
 21
175.2950475949567
 31
0.0
 12
358.5976944604242
 22
175.9450475949567
 32
0.0
 13
358.5976944604242
 23
175.9450475949567
 33
0.0
  0
SOLID
  5
11C2
330
70C
100
AcDbEntity
  8
标注
100
AcDbTrace
 10
358.4893611270909
 20
158.0596145240906
 30
0.0
 11
358.7060277937577
 21
158.0596145240906
 31
0.0
 12
358.5976944604242
 22
157.4096145240906
 32
0.0
 13
358.5976944604242
 23
157.4096145240906
 33
0.0
  0
MTEXT
  5
11C3
330
70C
100
AcDbEntity
  8
标注
100
AcDbMText
 10
358.5976944604242
 20
166.6773310595237
 30
0.0
 40
0.65
 41
0.0
 71
     5
 72
     1
  1
\A1;18 1/2"
 11
0.0000000000000001
 21
1.0
 31
0.0
 73
     1
 44
1.0
  0
POINT
  5
11C4
330
70C
100
AcDbEntity
  8
Defpoints
 62
     0
100
AcDbPoint
 10
346.3772220194858
 20
175.9450475949567
 30
0.0
  0
POINT
  5
11C5
330
70C
100
AcDbEntity
  8
Defpoints
 62
     0
100
AcDbPoint
 10
346.3772220194794
 20
157.4096145240906
 30
0.0
  0
POINT
  5
11C6
330
70C
100
AcDbEntity
  8
Defpoints
 62
     0
100
AcDbPoint
 10
358.5976944604242
 20
157.4096145240906
 30
0.0
  0
ENDBLK
  5
718
330
70C
100
AcDbEntity
  8
0
100
AcDbBlockEnd
  0
BLOCK
  5
724
330
719
100
AcDbEntity
  8
0
100
AcDbBlockBegin
  2
*D36
 70
     1
 10
0.0
 20
0.0
 30
0.0
  3
*D36
  1

  0
LINE
  5
11A8
330
719
100
AcDbEntity
  8
标注
370
    -2
100
AcDbLine
 10
339.8811590273541
 20
165.7973310595236
 30
0.0
 11
339.8811590273541
 21
154.3337090122798
 31
0.0
  0
LINE
  5
11A9
330
719
100
AcDbEntity
  8
标注
370
    -2
100
AcDbLine
 10
352.8732850116061
 20
165.7973310595236
 30
0.0
 11
352.8732850116061
 21
154.3337090122798
 31
0.0
  0
LINE
  5
11AA
330
719
100
AcDbEntity
  8
标注
370
    -2
100
AcDbLine
 10
340.5311590273541
 20
154.6537090122798
 30
0.0
 11
345.52722201948
 21
154.6537090122798
 31
0.0
  0
LINE
  5
11AB
330
719
100
AcDbEntity
  8
标注
370
    -2
100
AcDbLine
 10
352.2232850116062
 20
154.6537090122798
 30
0.0
 11
347.2272220194801
 21
154.6537090122798
 31
0.0
  0
SOLID
  5
11AC
330
719
100
AcDbEntity
  8
标注
100
AcDbTrace
 10
340.5311590273541
 20
154.7620423456131
 30
0.0
 11
340.5311590273541
 21
154.5453756789465
 31
0.0
 12
339.8811590273541
 22
154.6537090122798
 32
0.0
 13
339.8811590273541
 23
154.6537090122798
 33
0.0
  0
SOLID
  5
11AD
330
719
100
AcDbEntity
  8
标注
100
AcDbTrace
 10
352.2232850116062
 20
154.7620423456131
 30
0.0
 11
352.2232850116062
 21
154.5453756789465
 31
0.0
 12
352.8732850116061
 22
154.6537090122798
 32
0.0
 13
352.8732850116061
 23
154.6537090122798
 33
0.0
  0
MTEXT
  5
11AE
330
719
100
AcDbEntity
  8
标注
100
AcDbMText
 10
346.3772220194802
 20
154.6537090122798
 30
0.0
 40
0.65
 41
0.0
 71
     5
 72
     1
  1
\A1;13"
 73
     1
 44
1.0
  0
POINT
  5
11AF
330
719
100
AcDbEntity
  8
Defpoints
 62
     0
100
AcDbPoint
 10
339.8811590273541
 20
166.6773310595236
 30
0.0
  0
POINT
  5
11B0
330
719
100
AcDbEntity
  8
Defpoints
 62
     0
100
AcDbPoint
 10
352.8732850116061
 20
166.6773310595236
 30
0.0
  0
POINT
  5
11B1
330
719
100
AcDbEntity
  8
Defpoints
 62
     0
100
AcDbPoint
 10
352.8732850116061
 20
154.6537090122798
 30
0.0
  0
ENDBLK
  5
725
330
719
100
AcDbEntity
  8
0
100
AcDbBlockEnd
  0
BLOCK
  5
731
330
726
100
AcDbEntity
  8
0
100
AcDbBlockBegin
  2
*D37
 70
     1
 10
0.0
 20
0.0
 30
0.0
  3
*D37
  1

  0
LINE
  5
117F
330
726
100
AcDbEntity
  8
标注
370
    -2
100
AcDbLine
 10
322.8654109958581
 20
166.899693264248
 30
0.0
 11
322.8654109958581
 21
154.3337090122798
 31
0.0
  0
LINE
  5
1180
330
726
100
AcDbEntity
  8
标注
370
    -2
100
AcDbLine
 10
338.6134424919212
 20
166.0196932642481
 30
0.0
 11
338.6134424919212
 21
154.3337090122798
 31
0.0
  0
LINE
  5
1181
330
726
100
AcDbEntity
  8
标注
370
    -2
100
AcDbLine
 10
323.5154109958581
 20
154.6537090122798
 30
0.0
 11
328.5894267438897
 21
154.6537090122798
 31
0.0
  0
LINE
  5
1182
330
726
100
AcDbEntity
  8
标注
370
    -2
100
AcDbLine
 10
337.9634424919212
 20
154.6537090122798
 30
0.0
 11
332.8894267438897
 21
154.6537090122798
 31
0.0
  0
SOLID
  5
1183
330
726
100
AcDbEntity
  8
标注
100
AcDbTrace
 10
323.5154109958581
 20
154.7620423456131
 30
0.0
 11
323.5154109958581
 21
154.5453756789465
 31
0.0
 12
322.8654109958581
 22
154.6537090122798
 32
0.0
 13
322.8654109958581
 23
154.6537090122798
 33
0.0
  0
SOLID
  5
1184
330
726
100
AcDbEntity
  8
标注
100
AcDbTrace
 10
337.9634424919212
 20
154.7620423456131
 30
0.0
 11
337.9634424919212
 21
154.5453756789465
 31
0.0
 12
338.6134424919212
 22
154.6537090122798
 32
0.0
 13
338.6134424919212
 23
154.6537090122798
 33
0.0
  0
MTEXT
  5
1185
330
726
100
AcDbEntity
  8
标注
100
AcDbMText
 10
330.7394267438897
 20
154.6537090122798
 30
0.0
 40
0.65
 41
0.0
 71
     5
 72
     1
  1
\A1;15 3/4"
 73
     1
 44
1.0
  0
POINT
  5
1186
330
726
100
AcDbEntity
  8
Defpoints
 62
     0
100
AcDbPoint
 10
322.8654109958581
 20
167.779693264248
 30
0.0
  0
POINT
  5
1187
330
726
100
AcDbEntity
  8
Defpoints
 62
     0
100
AcDbPoint
 10
338.6134424919212
 20
166.899693264248
 30
0.0
  0
POINT
  5
1188
330
726
100
AcDbEntity
  8
Defpoints
 62
     0
100
AcDbPoint
 10
338.6134424919212
 20
154.6537090122798
 30
0.0
  0
ENDBLK
  5
732
330
726
100
AcDbEntity
  8
0
100
AcDbBlockEnd
  0
BLOCK
  5
73E
330
733
100
AcDbEntity
  8
0
100
AcDbBlockBegin
  2
*D38
 70
     1
 10
0.0
 20
0.0
 30
0.0
  3
*D38
  1

  0
LINE
  5
1193
330
733
100
AcDbEntity
  8
标注
370
    -2
100
AcDbLine
 10
321.8654109958582
 20
166.899693264248
 30
0.0
 11
321.8654109958582
 21
152.3652050752719
 31
0.0
  0
LINE
  5
1194
330
733
100
AcDbEntity
  8
标注
370
    -2
100
AcDbLine
 10
353.8732850116061
 20
165.7973310595236
 30
0.0
 11
353.8732850116061
 21
152.3652050752719
 31
0.0
  0
LINE
  5
1195
330
733
100
AcDbEntity
  8
标注
370
    -2
100
AcDbLine
 10
322.5154109958581
 20
152.6852050752719
 30
0.0
 11
336.9110146703989
 21
152.6852050752719
 31
0.0
  0
LINE
  5
1196
330
733
100
AcDbEntity
  8
标注
370
    -2
100
AcDbLine
 10
353.2232850116062
 20
152.6852050752719
 30
0.0
 11
338.8276813370655
 21
152.6852050752719
 31
0.0
  0
SOLID
  5
1197
330
733
100
AcDbEntity
  8
标注
100
AcDbTrace
 10
322.5154109958581
 20
152.7935384086052
 30
0.0
 11
322.5154109958581
 21
152.5768717419386
 31
0.0
 12
321.8654109958582
 22
152.6852050752719
 32
0.0
 13
321.8654109958582
 23
152.6852050752719
 33
0.0
  0
SOLID
  5
1198
330
733
100
AcDbEntity
  8
标注
100
AcDbTrace
 10
353.2232850116062
 20
152.7935384086052
 30
0.0
 11
353.2232850116062
 21
152.5768717419386
 31
0.0
 12
353.8732850116061
 22
152.6852050752719
 32
0.0
 13
353.8732850116061
 23
152.6852050752719
 33
0.0
  0
MTEXT
  5
1199
330
733
100
AcDbEntity
  8
标注
100
AcDbMText
 10
337.8693480037322
 20
152.6852050752719
 30
0.0
 40
0.65
 41
0.0
 71
     5
 72
     1
  1
\A1;32"
 73
     1
 44
1.0
  0
POINT
  5
119A
330
733
100
AcDbEntity
  8
Defpoints
 62
     0
100
AcDbPoint
 10
321.8654109958582
 20
167.779693264248
 30
0.0
  0
POINT
  5
119B
330
733
100
AcDbEntity
  8
Defpoints
 62
     0
100
AcDbPoint
 10
353.8732850116061
 20
166.6773310595236
 30
0.0
  0
POINT
  5
119C
330
733
100
AcDbEntity
  8
Defpoints
 62
     0
100
AcDbPoint
 10
353.8732850116061
 20
152.6852050752719
 30
0.0
  0
ENDBLK
  5
73F
330
733
100
AcDbEntity
  8
0
100
AcDbBlockEnd
  0
BLOCK
  5
74B
330
740
100
AcDbEntity
  8
0
100
AcDbBlockBegin
  2
*D39
 70
     1
 10
0.0
 20
0.0
 30
0.0
  3
*D39
  1

  0
LINE
  5
11E7
330
740
100
AcDbEntity
  8
标注
370
    -2
100
AcDbLine
 10
329.8594267438897
 20
177.1497720044055
 30
0.0
 11
318.7895054840469
 21
177.1497720044055
 31
0.0
  0
LINE
  5
11E8
330
740
100
AcDbEntity
  8
标注
370
    -2
100
AcDbLine
 10
326.9392185618625
 20
158.4096145240906
 30
0.0
 11
318.7895054840469
 21
158.4096145240906
 31
0.0
  0
LINE
  5
11E9
330
740
100
AcDbEntity
  8
标注
370
    -2
100
AcDbLine
 10
319.1095054840468
 20
176.4997720044055
 30
0.0
 11
319.1095054840468
 21
169.929693264248
 31
0.0
  0
LINE
  5
11EA
330
740
100
AcDbEntity
  8
标注
370
    -2
100
AcDbLine
 10
319.1095054840468
 20
159.0596145240906
 30
0.0
 11
319.1095054840468
 21
165.629693264248
 31
0.0
  0
SOLID
  5
11EB
330
740
100
AcDbEntity
  8
标注
100
AcDbTrace
 10
319.0011721507135
 20
176.4997720044055
 30
0.0
 11
319.2178388173802
 21
176.4997720044055
 31
0.0
 12
319.1095054840468
 22
177.1497720044055
 32
0.0
 13
319.1095054840468
 23
177.1497720044055
 33
0.0
  0
SOLID
  5
11EC
330
740
100
AcDbEntity
  8
标注
100
AcDbTrace
 10
319.0011721507135
 20
159.0596145240906
 30
0.0
 11
319.2178388173802
 21
159.0596145240906
 31
0.0
 12
319.1095054840468
 22
158.4096145240906
 32
0.0
 13
319.1095054840468
 23
158.4096145240906
 33
0.0
  0
MTEXT
  5
11ED
330
740
100
AcDbEntity
  8
标注
100
AcDbMText
 10
319.1095054840468
 20
167.7796932642481
 30
0.0
 40
0.65
 41
0.0
 71
     5
 72
     1
  1
\A1;18 3/4"
 11
0.0000000000000001
 21
1.0
 31
0.0
 73
     1
 44
1.0
  0
POINT
  5
11EE
330
740
100
AcDbEntity
  8
Defpoints
 62
     0
100
AcDbPoint
 10
330.7394267438897
 20
177.1497720044055
 30
0.0
  0
POINT
  5
11EF
330
740
100
AcDbEntity
  8
Defpoints
 62
     0
100
AcDbPoint
 10
327.8192185618625
 20
158.4096145240906
 30
0.0
  0
POINT
  5
11F0
330
740
100
AcDbEntity
  8
Defpoints
 62
     0
100
AcDbPoint
 10
319.1095054840468
 20
158.4096145240906
 30
0.0
  0
ENDBLK
  5
74C
330
740
100
AcDbEntity
  8
0
100
AcDbBlockEnd
  0
BLOCK
  5
758
330
74D
100
AcDbEntity
  8
0
100
AcDbBlockBegin
  2
*D40
 70
     1
 10
0.0
 20
0.0
 30
0.0
  3
*D40
  1

  0
LINE
  5
11F1
330
74D
100
AcDbEntity
  8
标注
370
    -2
100
AcDbLine
 10
329.8594267438897
 20
178.1497720044059
 30
0.0
 11
316.821001547039
 21
178.1497720044059
 31
0.0
  0
LINE
  5
11F2
330
74D
100
AcDbEntity
  8
标注
370
    -2
100
AcDbLine
 10
329.8594267438897
 20
157.4096145240906
 30
0.0
 11
316.821001547039
 21
157.4096145240906
 31
0.0
  0
LINE
  5
11F3
330
74D
100
AcDbEntity
  8
标注
370
    -2
100
AcDbLine
 10
317.141001547039
 20
177.4997720044059
 30
0.0
 11
317.141001547039
 21
169.983859930915
 31
0.0
  0
LINE
  5
11F4
330
74D
100
AcDbEntity
  8
标注
370
    -2
100
AcDbLine
 10
317.141001547039
 20
158.0596145240906
 30
0.0
 11
317.141001547039
 21
165.5755265975816
 31
0.0
  0
SOLID
  5
11F5
330
74D
100
AcDbEntity
  8
标注
100
AcDbTrace
 10
317.0326682137056
 20
177.4997720044059
 30
0.0
 11
317.2493348803723
 21
177.4997720044059
 31
0.0
 12
317.141001547039
 22
178.1497720044059
 32
0.0
 13
317.141001547039
 23
178.1497720044059
 33
0.0
  0
SOLID
  5
11F6
330
74D
100
AcDbEntity
  8
标注
100
AcDbTrace
 10
317.0326682137056
 20
158.0596145240906
 30
0.0
 11
317.2493348803723
 21
158.0596145240906
 31
0.0
 12
317.141001547039
 22
157.4096145240906
 32
0.0
 13
317.141001547039
 23
157.4096145240906
 33
0.0
  0
MTEXT
  5
11F7
330
74D
100
AcDbEntity
  8
标注
100
AcDbMText
 10
317.1410015470389
 20
167.7796932642483
 30
0.0
 40
0.65
 41
0.0
 71
     5
 72
     1
  1
\A1;20 3/4"
 11
0.0000000000000001
 21
1.0
 31
0.0
 73
     1
 44
1.0
  0
POINT
  5
11F8
330
74D
100
AcDbEntity
  8
Defpoints
 62
     0
100
AcDbPoint
 10
330.7394267438897
 20
178.1497720044059
 30
0.0
  0
POINT
  5
11F9
330
74D
100
AcDbEntity
  8
Defpoints
 62
     0
100
AcDbPoint
 10
330.7394267438897
 20
157.4096145240906
 30
0.0
  0
POINT
  5
11FA
330
74D
100
AcDbEntity
  8
Defpoints
 62
     0
100
AcDbPoint
 10
317.141001547039
 20
157.4096145240906
 30
0.0
  0
ENDBLK
  5
759
330
74D
100
AcDbEntity
  8
0
100
AcDbBlockEnd
  0
BLOCK
  5
765
330
75A
100
AcDbEntity
  8
0
100
AcDbBlockBegin
  2
*D41
 70
     1
 10
0.0
 20
0.0
 30
0.0
  3
*D41
  1

  0
LINE
  5
D5E
330
75A
100
AcDbEntity
  8
标注
370
    -2
100
AcDbLine
 10
320.1980094210548
 20
195.189937210028
 30
0.0
 11
318.7895054840469
 21
195.1899372100282
 31
0.0
  0
LINE
  5
D5F
330
75A
100
AcDbEntity
  8
标注
370
    -2
100
AcDbLine
 10
326.857902443431
 20
186.2062288205885
 30
0.0
 11
318.7895054840469
 21
186.2062288205885
 31
0.0
  0
LINE
  5
D60
330
75A
100
AcDbEntity
  8
标注
370
    -2
100
AcDbLine
 10
319.1095054840468
 20
194.5399372100282
 30
0.0
 11
319.1095054840468
 21
191.3314163486417
 31
0.0
  0
LINE
  5
D61
330
75A
100
AcDbEntity
  8
标注
370
    -2
100
AcDbLine
 10
319.1095054840468
 20
186.8562288205884
 30
0.0
 11
319.1095054840468
 21
190.0647496819749
 31
0.0
  0
SOLID
  5
D62
330
75A
100
AcDbEntity
  8
标注
100
AcDbTrace
 10
319.0011721507135
 20
194.5399372100282
 30
0.0
 11
319.2178388173802
 21
194.5399372100282
 31
0.0
 12
319.1095054840468
 22
195.1899372100282
 32
0.0
 13
319.1095054840468
 23
195.1899372100282
 33
0.0
  0
SOLID
  5
D63
330
75A
100
AcDbEntity
  8
标注
100
AcDbTrace
 10
319.0011721507135
 20
186.8562288205884
 30
0.0
 11
319.2178388173802
 21
186.8562288205884
 31
0.0
 12
319.1095054840468
 22
186.2062288205885
 32
0.0
 13
319.1095054840468
 23
186.2062288205885
 33
0.0
  0
MTEXT
  5
D64
330
75A
100
AcDbEntity
  8
标注
100
AcDbMText
 10
319.1095054840468
 20
190.6980830153084
 30
0.0
 40
0.65
 41
0.0
 71
     5
 72
     1
  1
\A1;9"
 11
0.0000000000000001
 21
1.0
 31
0.0
 73
     1
 44
1.0
  0
POINT
  5
D65
330
75A
100
AcDbEntity
  8
Defpoints
 62
     0
100
AcDbPoint
 10
321.0780094210547
 20
195.189937210028
 30
0.0
  0
POINT
  5
D66
330
75A
100
AcDbEntity
  8
Defpoints
 62
     0
100
AcDbPoint
 10
327.7379024434309
 20
186.2062288205885
 30
0.0
  0
POINT
  5
D67
330
75A
100
AcDbEntity
  8
Defpoints
 62
     0
100
AcDbPoint
 10
319.1095054840468
 20
186.2062288205885
 30
0.0
  0
ENDBLK
  5
766
330
75A
100
AcDbEntity
  8
0
100
AcDbBlockEnd
  0
BLOCK
  5
772
330
767
100
AcDbEntity
  8
0
100
AcDbBlockBegin
  2
*D42
 70
     1
 10
0.0
 20
0.0
 30
0.0
  3
*D42
  1

  0
LINE
  5
D54
330
767
100
AcDbEntity
  8
标注
370
    -2
100
AcDbLine
 10
354.8501988045757
 20
195.1899372100287
 30
0.0
 11
356.9491905234169
 21
195.1899372100287
 31
0.0
  0
LINE
  5
D55
330
767
100
AcDbEntity
  8
标注
370
    -2
100
AcDbLine
 10
349.7525320305073
 20
187.7072243138806
 30
0.0
 11
356.9491905234169
 21
187.7072243138806
 31
0.0
  0
LINE
  5
D56
330
767
100
AcDbEntity
  8
标注
370
    -2
100
AcDbLine
 10
356.6291905234169
 20
194.5399372100287
 30
0.0
 11
356.6291905234169
 21
193.2735807619546
 31
0.0
  0
LINE
  5
D57
330
767
100
AcDbEntity
  8
标注
370
    -2
100
AcDbLine
 10
356.6291905234169
 20
188.3572243138806
 30
0.0
 11
356.6291905234169
 21
189.6235807619547
 31
0.0
  0
SOLID
  5
D58
330
767
100
AcDbEntity
  8
标注
100
AcDbTrace
 10
356.5208571900836
 20
194.5399372100287
 30
0.0
 11
356.7375238567503
 21
194.5399372100287
 31
0.0
 12
356.6291905234169
 22
195.1899372100287
 32
0.0
 13
356.6291905234169
 23
195.1899372100287
 33
0.0
  0
SOLID
  5
D59
330
767
100
AcDbEntity
  8
标注
100
AcDbTrace
 10
356.5208571900836
 20
188.3572243138806
 30
0.0
 11
356.7375238567503
 21
188.3572243138806
 31
0.0
 12
356.6291905234169
 22
187.7072243138806
 32
0.0
 13
356.6291905234169
 23
187.7072243138806
 33
0.0
  0
MTEXT
  5
D5A
330
767
100
AcDbEntity
  8
标注
100
AcDbMText
 10
356.6291905234169
 20
191.4485807619547
 30
0.0
 40
0.65
 41
0.0
 71
     5
 72
     1
  1
\A1;7 1/2"
 11
0.0000000000000001
 21
1.0
 31
0.0
 73
     1
 44
1.0
  0
POINT
  5
D5B
330
767
100
AcDbEntity
  8
Defpoints
 62
     0
100
AcDbPoint
 10
353.9701988045757
 20
195.1899372100287
 30
0.0
  0
POINT
  5
D5C
330
767
100
AcDbEntity
  8
Defpoints
 62
     0
100
AcDbPoint
 10
348.8725320305073
 20
187.7072243138806
 30
0.0
  0
POINT
  5
D5D
330
767
100
AcDbEntity
  8
Defpoints
 62
     0
100
AcDbPoint
 10
356.6291905234169
 20
187.7072243138806
 30
0.0
  0
ENDBLK
  5
773
330
767
100
AcDbEntity
  8
0
100
AcDbBlockEnd
  0
BLOCK
  5
77A
330
774
100
AcDbEntity
  8
0
100
AcDbBlockBegin
  2
*D43
 70
     1
 10
0.0
 20
0.0
 30
0.0
  3
*D43
  1

  0
LINE
  5
D4F
330
774
100
AcDbEntity
  8
标注
370
    -2
100
AcDbLine
 10
342.6032023983162
 20
160.7476844048397
 30
0.0
 11
341.868210301603
 21
159.8040990621696
 31
0.0
  0
MTEXT
  5
D50
330
774
100
AcDbEntity
  8
标注
100
AcDbMText
 10
343.9243978690708
 20
162.4438396241688
 30
0.0
 40
0.65
 41
0.0
 71
     5
 72
     1
  1
\A1;R3 1/2"
 11
0.6145095212812234
 21
0.7889094043391305
 31
0.0
 73
     1
 44
1.0
  0
SOLID
  5
D51
330
774
100
AcDbEntity
  8
标注
100
AcDbTrace
 10
341.7827451161329
 20
159.8706709269752
 30
0.0
 11
341.953675487073
 21
159.7375271973642
 31
0.0
 12
341.4687791127702
 22
159.2913079493493
 32
0.0
 13
341.4687791127702
 23
159.2913079493493
 33
0.0
  0
POINT
  5
D52
330
774
100
AcDbEntity
  8
Defpoints
 62
     0
100
AcDbPoint
 10
341.4687791127702
 20
159.2913079493493
 30
0.0
  0
POINT
  5
D53
330
774
100
AcDbEntity
  8
Defpoints
 62
     0
100
AcDbPoint
 10
343.6461750543172
 20
162.08665623244
 30
0.0
  0
ENDBLK
  5
77B
330
774
100
AcDbEntity
  8
0
100
AcDbBlockEnd
  0
BLOCK
  5
787
330
77C
100
AcDbEntity
  8
0
100
AcDbBlockBegin
  2
*D44
 70
     1
 10
0.0
 20
0.0
 30
0.0
  3
*D44
  1

  0
LINE
  5
11B2
330
77C
100
AcDbEntity
  8
标注
370
    -2
100
AcDbLine
 10
352.8732850116061
 20
165.7973310595236
 30
0.0
 11
352.8732850116061
 21
154.3337090122798
 31
0.0
  0
LINE
  5
11B3
330
77C
100
AcDbEntity
  8
标注
370
    -2
100
AcDbLine
 10
353.8732850116061
 20
165.7973310595236
 30
0.0
 11
353.8732850116061
 21
154.3337090122798
 31
0.0
  0
LINE
  5
11B4
330
77C
100
AcDbEntity
  8
标注
370
    -2
100
AcDbLine
 10
352.2232850116062
 20
154.6537090122798
 30
0.0
 11
351.5732850116061
 21
154.6537090122798
 31
0.0
  0
LINE
  5
11B5
330
77C
100
AcDbEntity
  8
标注
370
    -2
100
AcDbLine
 10
354.5232850116061
 20
154.6537090122798
 30
0.0
 11
355.1732850116061
 21
154.6537090122798
 31
0.0
  0
LINE
  5
11B6
330
77C
100
AcDbEntity
  8
标注
370
    -2
100
AcDbLine
 10
352.8732850116061
 20
154.6537090122798
 30
0.0
 11
353.8732850116061
 21
154.6537090122798
 31
0.0
  0
SOLID
  5
11B7
330
77C
100
AcDbEntity
  8
标注
100
AcDbTrace
 10
352.2232850116062
 20
154.7620423456131
 30
0.0
 11
352.2232850116062
 21
154.5453756789465
 31
0.0
 12
352.8732850116061
 22
154.6537090122798
 32
0.0
 13
352.8732850116061
 23
154.6537090122798
 33
0.0
  0
SOLID
  5
11B8
330
77C
100
AcDbEntity
  8
标注
100
AcDbTrace
 10
354.5232850116061
 20
154.7620423456131
 30
0.0
 11
354.5232850116061
 21
154.5453756789465
 31
0.0
 12
353.8732850116061
 22
154.6537090122798
 32
0.0
 13
353.8732850116061
 23
154.6537090122798
 33
0.0
  0
MTEXT
  5
11B9
330
77C
100
AcDbEntity
  8
标注
100
AcDbMText
 10
355.6982850116061
 20
154.6537090122798
 30
0.0
 40
0.65
 41
0.0
 71
     5
 72
     1
  1
\A1;1"
 73
     1
 44
1.0
  0
POINT
  5
11BA
330
77C
100
AcDbEntity
  8
Defpoints
 62
     0
100
AcDbPoint
 10
352.8732850116061
 20
166.6773310595236
 30
0.0
  0
POINT
  5
11BB
330
77C
100
AcDbEntity
  8
Defpoints
 62
     0
100
AcDbPoint
 10
353.8732850116061
 20
166.6773310595236
 30
0.0
  0
POINT
  5
11BC
330
77C
100
AcDbEntity
  8
Defpoints
 62
     0
100
AcDbPoint
 10
353.8732850116061
 20
154.6537090122798
 30
0.0
  0
ENDBLK
  5
788
330
77C
100
AcDbEntity
  8
0
100
AcDbBlockEnd
  0
BLOCK
  5
794
330
789
100
AcDbEntity
  8
0
100
AcDbBlockBegin
  2
*D45
 70
     1
 10
0.0
 20
0.0
 30
0.0
  3
*D45
  1

  0
LINE
  5
D16
330
789
100
AcDbEntity
  8
标注
370
    -2
100
AcDbLine
 10
338.6134424919212
 20
166.899693264248
 30
0.0
 11
338.6134424919212
 21
167.0866120830936
 31
0.0
  0
LINE
  5
D17
330
789
100
AcDbEntity
  8
标注
370
    -2
100
AcDbLine
 10
339.8811590273541
 20
167.5573310595236
 30
0.0
 11
339.8811590273541
 21
167.7266120830936
 31
0.0
  0
LINE
  5
D18
330
789
100
AcDbEntity
  8
标注
370
    -2
100
AcDbLine
 10
340.5311590273541
 20
167.4066120830937
 30
0.0
 11
341.1811590273541
 21
167.4066120830937
 31
0.0
  0
LINE
  5
D19
330
789
100
AcDbEntity
  8
标注
370
    -2
100
AcDbLine
 10
337.9634424919212
 20
167.4066120830937
 30
0.0
 11
337.2362771375907
 21
167.4066120830937
 31
0.0
  0
LINE
  5
D1A
330
789
100
AcDbEntity
  8
标注
370
    -2
100
AcDbLine
 10
339.8811590273541
 20
167.4066120830937
 30
0.0
 11
338.6134424919212
 21
167.4066120830937
 31
0.0
  0
SOLID
  5
D1B
330
789
100
AcDbEntity
  8
标注
100
AcDbTrace
 10
340.5311590273541
 20
167.514945416427
 30
0.0
 11
340.5311590273541
 21
167.2982787497604
 31
0.0
 12
339.8811590273541
 22
167.4066120830937
 32
0.0
 13
339.8811590273541
 23
167.4066120830937
 33
0.0
  0
SOLID
  5
D1C
330
789
100
AcDbEntity
  8
标注
100
AcDbTrace
 10
337.9634424919212
 20
167.514945416427
 30
0.0
 11
337.9634424919212
 21
167.2982787497604
 31
0.0
 12
338.6134424919212
 22
167.4066120830937
 32
0.0
 13
338.6134424919212
 23
167.4066120830937
 33
0.0
  0
MTEXT
  5
D1D
330
789
100
AcDbEntity
  8
标注
100
AcDbMText
 10
335.519610470924
 20
167.4066120830937
 30
0.0
 40
0.65
 41
0.0
 71
     5
 72
     1
  1
\A1;1 1/2"
 73
     1
 44
1.0
  0
POINT
  5
D1E
330
789
100
AcDbEntity
  8
Defpoints
 62
     0
100
AcDbPoint
 10
338.6134424919212
 20
167.779693264248
 30
0.0
  0
POINT
  5
D1F
330
789
100
AcDbEntity
  8
Defpoints
 62
     0
100
AcDbPoint
 10
339.8811590273541
 20
166.6773310595236
 30
0.0
  0
POINT
  5
D20
330
789
100
AcDbEntity
  8
Defpoints
 62
     0
100
AcDbPoint
 10
339.8811590273541
 20
167.4066120830937
 30
0.0
  0
ENDBLK
  5
795
330
789
100
AcDbEntity
  8
0
100
AcDbBlockEnd
  0
BLOCK
  5
7A1
330
796
100
AcDbEntity
  8
0
100
AcDbBlockBegin
  2
*D46
 70
     1
 10
0.0
 20
0.0
 30
0.0
  3
*D46
  1

  0
LINE
  5
1156
330
796
100
AcDbEntity
  8
标注
370
    -2
100
AcDbLine
 10
324.7248562093318
 20
158.4096145240906
 30
0.0
 11
318.7895054840469
 21
158.4096145240906
 31
0.0
  0
LINE
  5
1157
330
796
100
AcDbEntity
  8
标注
370
    -2
100
AcDbLine
 10
329.8594267438897
 20
157.4096145240906
 30
0.0
 11
318.7895054840469
 21
157.4096145240906
 31
0.0
  0
LINE
  5
1158
330
796
100
AcDbEntity
  8
标注
370
    -2
100
AcDbLine
 10
319.1095054840468
 20
159.0596145240906
 30
0.0
 11
319.1095054840468
 21
159.7096145240906
 31
0.0
  0
LINE
  5
1159
330
796
100
AcDbEntity
  8
标注
370
    -2
100
AcDbLine
 10
319.1095054840468
 20
156.7596145240906
 30
0.0
 11
319.1095054840468
 21
156.1096145240906
 31
0.0
  0
LINE
  5
115A
330
796
100
AcDbEntity
  8
标注
370
    -2
100
AcDbLine
 10
319.1095054840468
 20
158.4096145240906
 30
0.0
 11
319.1095054840468
 21
157.4096145240906
 31
0.0
  0
SOLID
  5
115B
330
796
100
AcDbEntity
  8
标注
100
AcDbTrace
 10
319.0011721507135
 20
159.0596145240906
 30
0.0
 11
319.2178388173802
 21
159.0596145240906
 31
0.0
 12
319.1095054840468
 22
158.4096145240906
 32
0.0
 13
319.1095054840468
 23
158.4096145240906
 33
0.0
  0
SOLID
  5
115C
330
796
100
AcDbEntity
  8
标注
100
AcDbTrace
 10
319.0011721507135
 20
156.7596145240906
 30
0.0
 11
319.2178388173802
 21
156.7596145240906
 31
0.0
 12
319.1095054840468
 22
157.4096145240906
 32
0.0
 13
319.1095054840468
 23
157.4096145240906
 33
0.0
  0
MTEXT
  5
115D
330
796
100
AcDbEntity
  8
标注
100
AcDbMText
 10
319.1095054840468
 20
155.5846145240907
 30
0.0
 40
0.65
 41
0.0
 71
     5
 72
     1
  1
\A1;1"
 11
0.0000000000000001
 21
1.0
 31
0.0
 73
     1
 44
1.0
  0
POINT
  5
115E
330
796
100
AcDbEntity
  8
Defpoints
 62
     0
100
AcDbPoint
 10
325.6048562093318
 20
158.4096145240906
 30
0.0
  0
POINT
  5
115F
330
796
100
AcDbEntity
  8
Defpoints
 62
     0
100
AcDbPoint
 10
330.7394267438897
 20
157.4096145240906
 30
0.0
  0
POINT
  5
1160
330
796
100
AcDbEntity
  8
Defpoints
 62
     0
100
AcDbPoint
 10
319.1095054840468
 20
157.4096145240906
 30
0.0
  0
ENDBLK
  5
7A2
330
796
100
AcDbEntity
  8
0
100
AcDbBlockEnd
  0
BLOCK
  5
7AE
330
7A3
100
AcDbEntity
  8
0
100
AcDbBlockBegin
  2
*D47
 70
     1
 10
0.0
 20
0.0
 30
0.0
  3
*D47
  1

  0
LINE
  5
11DC
330
7A3
100
AcDbEntity
  8
标注
370
    -2
100
AcDbLine
 10
347.2572220194801
 20
174.9450475949567
 30
0.0
 11
356.9491905234169
 21
174.9450475949567
 31
0.0
  0
LINE
  5
11DD
330
7A3
100
AcDbEntity
  8
标注
370
    -2
100
AcDbLine
 10
347.2572220194858
 20
175.9450475949567
 30
0.0
 11
356.9491905234169
 21
175.9450475949567
 31
0.0
  0
LINE
  5
11DE
330
7A3
100
AcDbEntity
  8
标注
370
    -2
100
AcDbLine
 10
356.6291905234169
 20
174.2950475949567
 30
0.0
 11
356.6291905234169
 21
173.6450475949567
 31
0.0
  0
LINE
  5
11DF
330
7A3
100
AcDbEntity
  8
标注
370
    -2
100
AcDbLine
 10
356.6291905234169
 20
176.5950475949567
 30
0.0
 11
356.6291905234169
 21
177.2450475949567
 31
0.0
  0
LINE
  5
11E0
330
7A3
100
AcDbEntity
  8
标注
370
    -2
100
AcDbLine
 10
356.6291905234169
 20
174.9450475949567
 30
0.0
 11
356.6291905234169
 21
175.9450475949567
 31
0.0
  0
SOLID
  5
11E1
330
7A3
100
AcDbEntity
  8
标注
100
AcDbTrace
 10
356.5208571900836
 20
174.2950475949567
 30
0.0
 11
356.7375238567503
 21
174.2950475949567
 31
0.0
 12
356.6291905234169
 22
174.9450475949567
 32
0.0
 13
356.6291905234169
 23
174.9450475949567
 33
0.0
  0
SOLID
  5
11E2
330
7A3
100
AcDbEntity
  8
标注
100
AcDbTrace
 10
356.5208571900836
 20
176.5950475949567
 30
0.0
 11
356.7375238567503
 21
176.5950475949567
 31
0.0
 12
356.6291905234169
 22
175.9450475949567
 32
0.0
 13
356.6291905234169
 23
175.9450475949567
 33
0.0
  0
MTEXT
  5
11E3
330
7A3
100
AcDbEntity
  8
标注
100
AcDbMText
 10
356.6291905234169
 20
177.7700475949567
 30
0.0
 40
0.65
 41
0.0
 71
     5
 72
     1
  1
\A1;1"
 11
0.0000000000000001
 21
1.0
 31
0.0
 73
     1
 44
1.0
  0
POINT
  5
11E4
330
7A3
100
AcDbEntity
  8
Defpoints
 62
     0
100
AcDbPoint
 10
346.3772220194802
 20
174.9450475949567
 30
0.0
  0
POINT
  5
11E5
330
7A3
100
AcDbEntity
  8
Defpoints
 62
     0
100
AcDbPoint
 10
346.3772220194858
 20
175.9450475949567
 30
0.0
  0
POINT
  5
11E6
330
7A3
100
AcDbEntity
  8
Defpoints
 62
     0
100
AcDbPoint
 10
356.6291905234169
 20
175.9450475949567
 30
0.0
  0
ENDBLK
  5
7AF
330
7A3
100
AcDbEntity
  8
0
100
AcDbBlockEnd
  0
BLOCK
  5
815
330
80F
100
AcDbEntity
  8
0
100
AcDbBlockBegin
  2
*D48
 70
     1
 10
0.0
 20
0.0
 30
0.0
  3
*D48
  1

  0
LINE
  5
1115
330
80F
100
AcDbEntity
  8
标注
370
    -2
100
AcDbLine
 10
336.2842632601933
 20
161.683819795944
 30
0.0
 11
337.4694856953738
 21
161.1553484865526
 31
0.0
  0
MTEXT
  5
1116
330
80F
100
AcDbEntity
  8
标注
100
AcDbMText
 10
334.2216753777222
 20
162.6034940162674
 30
0.0
 40
0.65
 41
0.0
 71
     5
 72
     1
  1
\A1;R3 7/8"
 11
0.9133230475887179
 21
-0.4072358171173754
 31
0.0
 73
     1
 44
1.0
  0
SOLID
  5
1117
330
80F
100
AcDbEntity
  8
标注
100
AcDbTrace
 10
337.5136029088949
 20
161.254291816708
 30
0.0
 11
337.4253684818528
 21
161.0564051563971
 31
0.0
 12
338.0631456763065
 22
160.8906452054263
 32
0.0
 13
338.0631456763065
 23
160.8906452054263
 33
0.0
  0
POINT
  5
1118
330
80F
100
AcDbEntity
  8
Defpoints
 62
     0
100
AcDbPoint
 10
338.0631456763065
 20
160.8906452054263
 30
0.0
  0
POINT
  5
1119
330
80F
100
AcDbEntity
  8
Defpoints
 62
     0
100
AcDbPoint
 10
334.4673856464297
 20
162.4939358239986
 30
0.0
  0
ENDBLK
  5
816
330
80F
100
AcDbEntity
  8
0
100
AcDbBlockEnd
  0
BLOCK
  5
822
330
817
100
AcDbEntity
  8
0
100
AcDbBlockBegin
  2
*D49
 70
     1
 10
0.0
 20
0.0
 30
0.0
  3
*D49
  1

  0
LINE
  5
D40
330
817
100
AcDbEntity
  8
标注
370
    -2
100
AcDbLine
 10
334.9422206323307
 20
178.1497720044059
 30
0.0
 11
334.0081351588914
 21
178.1497720044059
 31
0.0
  0
LINE
  5
D41
330
817
100
AcDbEntity
  8
标注
370
    -2
100
AcDbLine
 10
334.3860186135856
 20
171.6379609807835
 30
0.0
 11
334.0081351588914
 21
171.6379609807835
 31
0.0
  0
LINE
  5
D42
330
817
100
AcDbEntity
  8
标注
370
    -2
100
AcDbLine
 10
334.3281351588914
 20
177.4997720044059
 30
0.0
 11
334.3281351588914
 21
176.2631433122041
 31
0.0
  0
LINE
  5
D43
330
817
100
AcDbEntity
  8
标注
370
    -2
100
AcDbLine
 10
334.3281351588914
 20
172.2879609807835
 30
0.0
 11
334.3281351588914
 21
172.6131433122041
 31
0.0
  0
SOLID
  5
D44
330
817
100
AcDbEntity
  8
标注
100
AcDbTrace
 10
334.219801825558
 20
177.4997720044059
 30
0.0
 11
334.4364684922247
 21
177.4997720044059
 31
0.0
 12
334.3281351588914
 22
178.1497720044059
 32
0.0
 13
334.3281351588914
 23
178.1497720044059
 33
0.0
  0
SOLID
  5
D45
330
817
100
AcDbEntity
  8
标注
100
AcDbTrace
 10
334.219801825558
 20
172.2879609807835
 30
0.0
 11
334.4364684922247
 21
172.2879609807835
 31
0.0
 12
334.3281351588914
 22
171.6379609807835
 32
0.0
 13
334.3281351588914
 23
171.6379609807835
 33
0.0
  0
MTEXT
  5
D46
330
817
100
AcDbEntity
  8
标注
100
AcDbMText
 10
334.3281351588913
 20
174.4381433122043
 30
0.0
 40
0.65
 41
0.0
 71
     5
 72
     1
  1
\A1;6 1/2"
 11
0.0000000000000001
 21
1.0
 31
0.0
 73
     1
 44
1.0
  0
POINT
  5
D47
330
817
100
AcDbEntity
  8
Defpoints
 62
     0
100
AcDbPoint
 10
335.8222206323308
 20
178.1497720044059
 30
0.0
  0
POINT
  5
D48
330
817
100
AcDbEntity
  8
Defpoints
 62
     0
100
AcDbPoint
 10
335.2660186135856
 20
171.6379609807835
 30
0.0
  0
POINT
  5
D49
330
817
100
AcDbEntity
  8
Defpoints
 62
     0
100
AcDbPoint
 10
334.3281351588914
 20
171.6379609807835
 30
0.0
  0
ENDBLK
  5
823
330
817
100
AcDbEntity
  8
0
100
AcDbBlockEnd
  0
BLOCK
  5
82F
330
824
100
AcDbEntity
  8
0
100
AcDbBlockBegin
  2
*D50
 70
     1
 10
0.0
 20
0.0
 30
0.0
  3
*D50
  1

  0
LINE
  5
D36
330
824
100
AcDbEntity
  8
标注
370
    -2
100
AcDbLine
 10
346.6207543602234
 20
175.9450475949561
 30
0.0
 11
342.4124322722178
 21
175.9450475949561
 31
0.0
  0
LINE
  5
D37
330
824
100
AcDbEntity
  8
标注
370
    -2
100
AcDbLine
 10
343.0405125957516
 20
169.4332365713344
 30
0.0
 11
342.4124322722178
 21
169.4332365713344
 31
0.0
  0
LINE
  5
D38
330
824
100
AcDbEntity
  8
标注
370
    -2
100
AcDbLine
 10
342.7324322722177
 20
175.2950475949561
 30
0.0
 11
342.7324322722177
 21
173.9592693166865
 31
0.0
  0
LINE
  5
D39
330
824
100
AcDbEntity
  8
标注
370
    -2
100
AcDbLine
 10
342.7324322722177
 20
170.0832365713344
 30
0.0
 11
342.7324322722177
 21
170.3092693166865
 31
0.0
  0
SOLID
  5
D3A
330
824
100
AcDbEntity
  8
标注
100
AcDbTrace
 10
342.6240989388844
 20
175.2950475949561
 30
0.0
 11
342.8407656055511
 21
175.2950475949561
 31
0.0
 12
342.7324322722177
 22
175.9450475949561
 32
0.0
 13
342.7324322722177
 23
175.9450475949561
 33
0.0
  0
SOLID
  5
D3B
330
824
100
AcDbEntity
  8
标注
100
AcDbTrace
 10
342.6240989388844
 20
170.0832365713344
 30
0.0
 11
342.8407656055511
 21
170.0832365713344
 31
0.0
 12
342.7324322722177
 22
169.4332365713344
 32
0.0
 13
342.7324322722177
 23
169.4332365713344
 33
0.0
  0
MTEXT
  5
D3C
330
824
100
AcDbEntity
  8
标注
100
AcDbMText
 10
342.7324322722177
 20
172.1342693166866
 30
0.0
 40
0.65
 41
0.0
 71
     5
 72
     1
  1
\A1;6 1/2"
 11
0.0000000000000001
 21
1.0
 31
0.0
 73
     1
 44
1.0
  0
POINT
  5
D3D
330
824
100
AcDbEntity
  8
Defpoints
 62
     0
100
AcDbPoint
 10
347.5007543602234
 20
175.9450475949561
 30
0.0
  0
POINT
  5
D3E
330
824
100
AcDbEntity
  8
Defpoints
 62
     0
100
AcDbPoint
 10
343.9205125957516
 20
169.4332365713344
 30
0.0
  0
POINT
  5
D3F
330
824
100
AcDbEntity
  8
Defpoints
 62
     0
100
AcDbPoint
 10
342.7324322722177
 20
169.4332365713344
 30
0.0
  0
ENDBLK
  5
830
330
824
100
AcDbEntity
  8
0
100
AcDbBlockEnd
  0
BLOCK
  5
83C
330
831
100
AcDbEntity
  8
0
100
AcDbBlockBegin
  2
*D51
 70
     1
 10
0.0
 20
0.0
 30
0.0
  3
*D51
  1

  0
LINE
  5
D2C
330
831
100
AcDbEntity
  8
标注
370
    -2
100
AcDbLine
 10
321.8654109958578
 20
168.2884972423698
 30
0.0
 11
321.8654109958578
 21
168.3990795956816
 31
0.0
  0
LINE
  5
D2D
330
831
100
AcDbEntity
  8
标注
370
    -2
100
AcDbLine
 10
330.7403722448066
 20
168.4370872344226
 30
0.0
 11
330.7403722448066
 21
168.3990795956816
 31
0.0
  0
LINE
  5
D2E
330
831
100
AcDbEntity
  8
标注
370
    -2
100
AcDbLine
 10
322.5154109958578
 20
168.0790795956817
 30
0.0
 11
324.3695582869989
 21
168.0790795956817
 31
0.0
  0
LINE
  5
D2F
330
831
100
AcDbEntity
  8
标注
370
    -2
100
AcDbLine
 10
330.0903722448067
 20
168.0790795956817
 30
0.0
 11
328.2362249536656
 21
168.0790795956817
 31
0.0
  0
SOLID
  5
D30
330
831
100
AcDbEntity
  8
标注
100
AcDbTrace
 10
322.5154109958578
 20
168.187412929015
 30
0.0
 11
322.5154109958578
 21
167.9707462623484
 31
0.0
 12
321.8654109958578
 22
168.0790795956817
 32
0.0
 13
321.8654109958578
 23
168.0790795956817
 33
0.0
  0
SOLID
  5
D31
330
831
100
AcDbEntity
  8
标注
100
AcDbTrace
 10
330.0903722448067
 20
168.187412929015
 30
0.0
 11
330.0903722448067
 21
167.9707462623484
 31
0.0
 12
330.7403722448066
 22
168.0790795956817
 32
0.0
 13
330.7403722448066
 23
168.0790795956817
 33
0.0
  0
MTEXT
  5
D32
330
831
100
AcDbEntity
  8
标注
100
AcDbMText
 10
326.3028916203321
 20
168.0790795956817
 30
0.0
 40
0.65
 41
0.0
 71
     5
 72
     1
  1
\A1;8 7/8"
 73
     1
 44
1.0
  0
POINT
  5
D33
330
831
100
AcDbEntity
  8
Defpoints
 62
     0
100
AcDbPoint
 10
321.8654109958578
 20
167.4084972423698
 30
0.0
  0
POINT
  5
D34
330
831
100
AcDbEntity
  8
Defpoints
 62
     0
100
AcDbPoint
 10
330.7403722448066
 20
167.5570872344227
 30
0.0
  0
POINT
  5
D35
330
831
100
AcDbEntity
  8
Defpoints
 62
     0
100
AcDbPoint
 10
330.7403722448066
 20
168.0790795956817
 30
0.0
  0
ENDBLK
  5
83D
330
831
100
AcDbEntity
  8
0
100
AcDbBlockEnd
  0
BLOCK
  5
849
330
83E
100
AcDbEntity
  8
0
100
AcDbBlockBegin
  2
*D52
 70
     1
 10
0.0
 20
0.0
 30
0.0
  3
*D52
  1

  0
LINE
  5
89E
330
83E
100
AcDbEntity
  8
标注
370
    -2
100
AcDbLine
 10
1164.751255496385
 20
-96805.99741077118
 30
0.0
 11
1164.751255496385
 21
-96857.15281360703
 31
0.0
  0
LINE
  5
89F
330
83E
100
AcDbEntity
  8
标注
370
    -2
100
AcDbLine
 10
1354.502239773117
 20
-96805.99741077118
 30
0.0
 11
1354.502239773117
 21
-96857.15281360703
 31
0.0
  0
LINE
  5
8A0
330
83E
100
AcDbEntity
  8
标注
370
    -2
100
AcDbLine
 10
1165.401255496385
 20
-96856.83281360704
 30
0.0
 11
1257.151747634751
 21
-96856.83281360704
 31
0.0
  0
LINE
  5
8A1
330
83E
100
AcDbEntity
  8
标注
370
    -2
100
AcDbLine
 10
1353.852239773117
 20
-96856.83281360704
 30
0.0
 11
1262.101747634751
 21
-96856.83281360704
 31
0.0
  0
SOLID
  5
8A2
330
83E
100
AcDbEntity
  8
标注
100
AcDbTrace
 10
1165.401255496385
 20
-96856.7244802737
 30
0.0
 11
1165.401255496385
 21
-96856.94114694037
 31
0.0
 12
1164.751255496385
 22
-96856.83281360704
 32
0.0
 13
1164.751255496385
 23
-96856.83281360704
 33
0.0
  0
SOLID
  5
8A3
330
83E
100
AcDbEntity
  8
标注
100
AcDbTrace
 10
1353.852239773117
 20
-96856.7244802737
 30
0.0
 11
1353.852239773117
 21
-96856.94114694037
 31
0.0
 12
1354.502239773117
 22
-96856.83281360704
 32
0.0
 13
1354.502239773117
 23
-96856.83281360704
 33
0.0
  0
MTEXT
  5
8A4
330
83E
100
AcDbEntity
  8
标注
100
AcDbMText
 10
1259.626747634751
 20
-96856.83281360704
 30
0.0
 40
0.65
 41
0.0
 71
     5
 72
     1
  1
\A1;189 3/4"
 73
     1
 44
1.0
  0
POINT
  5
8A5
330
83E
100
AcDbEntity
  8
Defpoints
 62
     0
100
AcDbPoint
 10
1164.751255496385
 20
-96805.11741077117
 30
0.0
  0
POINT
  5
8A6
330
83E
100
AcDbEntity
  8
Defpoints
 62
     0
100
AcDbPoint
 10
1354.502239773117
 20
-96805.11741077117
 30
0.0
  0
POINT
  5
8A7
330
83E
100
AcDbEntity
  8
Defpoints
 62
     0
100
AcDbPoint
 10
1354.502239773117
 20
-96856.83281360704
 30
0.0
  0
ENDBLK
  5
84A
330
83E
100
AcDbEntity
  8
0
100
AcDbBlockEnd
  0
BLOCK
  5
86E
330
85F
100
AcDbEntity
  8
0
100
AcDbBlockBegin
  2
*D53
 70
     1
 10
0.0
 20
0.0
 30
0.0
  3
*D53
  1

  0
LINE
  5
860
330
85F
100
AcDbEntity
  8
标注
370
    -2
100
AcDbLine
 10
81387.48182712497
 20
287.3697643637844
 30
0.0
 11
81561.87289164648
 21
287.2247665345836
 31
0.0
  0
LINE
  5
861
330
85F
100
AcDbEntity
  8
标注
370
    -2
100
AcDbLine
 10
81387.48182742915
 20
287.370496041442
 30
0.0
 11
81561.87295223004
 21
287.3704960414419
 31
0.0
  0
ARC
  5
862
330
85F
100
AcDbEntity
  8
标注
370
    -2
100
AcDbCircle
 10
81386.60182742915
 20
287.370496041442
 30
0.0
 40
174.9511248008966
100
AcDbArc
 50
359.5266156356713
 51
359.952361310712
  0
ARC
  5
863
330
85F
100
AcDbEntity
  8
标注
370
    -2
100
AcDbCircle
 10
81386.60182742915
 20
287.3704960414421
 30
0.0
 40
174.9511248008966
100
AcDbArc
 50
359.5266163702797
 51
359.7394888404958
  0
ARC
  5
864
330
85F
100
AcDbEntity
  8
标注
370
    -2
100
AcDbCircle
 10
81386.60182742915
 20
287.3704960414421
 30
0.0
 40
174.9511248008966
100
AcDbArc
 50
0.2128724702161833
 51
0.4257449404323668
  0
ARC
  5
865
330
85F
100
AcDbEntity
  8
标注
370
    -2
100
AcDbCircle
 10
81386.60182742915
 20
287.3704960414421
 30
0.0
 40
174.9511248008966
100
AcDbArc
 50
359.952361310712
 51
0.0
  0
SOLID
  5
866
330
85F
100
AcDbEntity
  8
标注
100
AcDbTrace
 10
81561.44281089304
 20
286.5753262697806
 30
0.0
 11
81561.65947677628
 21
286.574743628959
 31
0.0
 12
81561.55289175714
 22
287.2250325991863
 32
0.0
 13
81561.55289175714
 23
287.2250325991863
 33
0.0
  0
SOLID
  5
867
330
85F
100
AcDbEntity
  8
标注
100
AcDbTrace
 10
81561.66007789636
 20
288.0206961665781
 30
0.0
 11
81561.44341160358
 21
288.0202936732146
 31
0.0
 12
81561.55295223005
 22
287.370496041442
 32
0.0
 13
81561.55295223005
 23
287.370496041442
 33
0.0
  0
MTEXT
  5
868
330
85F
100
AcDbEntity
  8
标注
100
AcDbMText
 10
81561.54040576607
 20
285.1292398661053
 30
0.0
 40
0.65
 41
0.0
 71
     5
 72
     1
  1
\A1;0°"
 11
0.0082620217864585
 21
0.9999658689155346
 31
0.0
 73
     1
 44
1.0
  0
POINT
  5
869
330
85F
100
AcDbEntity
  8
Defpoints
 62
     0
100
AcDbPoint
 10
81561.55294551084
 20
287.3220082223909
 30
0.0
  0
POINT
  5
86A
330
85F
100
AcDbEntity
  8
Defpoints
 62
     0
100
AcDbPoint
 10
942.9083964532564
 20
354.2555795885671
 30
0.0
  0
POINT
  5
86B
330
85F
100
AcDbEntity
  8
Defpoints
 62
     0
100
AcDbPoint
 10
624.5022397730882
 20
287.3704960414431
 30
0.0
  0
POINT
  5
86C
330
85F
100
AcDbEntity
  8
Defpoints
 62
     0
100
AcDbPoint
 10
1278.502239773146
 20
287.3704960414431
 30
0.0
  0
POINT
  5
86D
330
85F
100
AcDbEntity
  8
Defpoints
 62
     0
100
AcDbPoint
 10
1017.423089322585
 20
354.1936241854088
 30
0.0
  0
ENDBLK
  5
86F
330
85F
100
AcDbEntity
  8
0
100
AcDbBlockEnd
  0
BLOCK
  5
88A
330
884
100
AcDbEntity
  8
0
100
AcDbBlockBegin
  2
*D54
 70
     1
 10
0.0
 20
0.0
 30
0.0
  3
*D54
  1

  0
LINE
  5
DB3
330
884
100
AcDbEntity
  8
标注
370
    -2
100
AcDbLine
 10
324.6808523150431
 20
188.3426395978185
 30
0.0
 11
323.7514862558979
 21
187.700680693546
 31
0.0
  0
MTEXT
  5
DB4
330
884
100
AcDbEntity
  8
标注
100
AcDbMText
 10
325.4693611621334
 20
188.8873014891219
 30
0.0
 40
0.65
 41
0.0
 71
     5
 72
     1
  1
\A1;R2"
 11
0.8227918404419799
 21
0.5683428430992154
 31
0.0
 73
     1
 44
1.0
  0
SOLID
  5
DB5
330
884
100
AcDbEntity
  8
标注
100
AcDbTrace
 10
323.6899157812289
 20
187.7898164762605
 30
0.0
 11
323.813056730567
 21
187.6115449108314
 31
0.0
 12
323.2166715596106
 22
187.3312578455315
 32
0.0
 13
323.2166715596106
 23
187.3312578455315
 33
0.0
  0
POINT
  5
DB6
330
884
100
AcDbEntity
  8
Defpoints
 62
     0
100
AcDbPoint
 10
323.2166715596106
 20
187.3312578455315
 30
0.0
  0
POINT
  5
DB7
330
884
100
AcDbEntity
  8
Defpoints
 62
     0
100
AcDbPoint
 10
324.8363405368591
 20
188.4500429697428
 30
0.0
  0
ENDBLK
  5
88B
330
884
100
AcDbEntity
  8
0
100
AcDbBlockEnd
  0
BLOCK
  5
892
330
88C
100
AcDbEntity
  8
0
100
AcDbBlockBegin
  2
*D55
 70
     1
 10
0.0
 20
0.0
 30
0.0
  3
*D55
  1

  0
LINE
  5
DAE
330
88C
100
AcDbEntity
  8
标注
370
    -2
100
AcDbLine
 10
341.6232912276667
 20
189.7246799279054
 30
0.0
 11
340.7734505871652
 21
188.9806346386814
 31
0.0
  0
MTEXT
  5
DAF
330
88C
100
AcDbEntity
  8
标注
100
AcDbMText
 10
342.3443277418136
 20
190.3559557179088
 30
0.0
 40
0.65
 41
0.0
 71
     5
 72
     1
  1
\A1;R2"
 11
0.7523859278055981
 21
0.6587225634818573
 31
0.0
 73
     1
 44
1.0
  0
SOLID
  5
DB0
330
88C
100
AcDbEntity
  8
标注
100
AcDbTrace
 10
340.7020889761213
 20
189.0621431141936
 30
0.0
 11
340.844812198209
 21
188.8991261631691
 31
0.0
 12
340.2843997340915
 22
188.5524649724182
 32
0.0
 13
340.2843997340915
 23
188.5524649724182
 33
0.0
  0
POINT
  5
DB1
330
88C
100
AcDbEntity
  8
Defpoints
 62
     0
100
AcDbPoint
 10
340.2843997340915
 20
188.5524649724182
 30
0.0
  0
POINT
  5
DB2
330
88C
100
AcDbEntity
  8
Defpoints
 62
     0
100
AcDbPoint
 10
341.7654743951268
 20
189.8491629320286
 30
0.0
  0
ENDBLK
  5
893
330
88C
100
AcDbEntity
  8
0
100
AcDbBlockEnd
  0
BLOCK
  5
A6A
330
A69
100
AcDbEntity
  8
0
100
AcDbBlockBegin
  2
*D56
 70
     1
 10
0.0
 20
0.0
 30
0.0
  3
*D56
  1

  0
LINE
  5
A6B
330
A69
100
AcDbEntity
  8
标注
370
    -2
100
AcDbLine
 10
78.25616482987856
 20
155.5239103140892
 30
0.0
 11
81.9068340916498
 21
155.5239103140892
 31
0.0
  0
LINE
  5
A6C
330
A69
100
AcDbEntity
  8
标注
370
    -2
100
AcDbLine
 10
80.46088923932734
 20
153.0435953534593
 30
0.0
 11
81.9068340916498
 21
153.0435953534593
 31
0.0
  0
LINE
  5
A6D
330
A69
100
AcDbEntity
  8
标注
370
    -2
100
AcDbLine
 10
81.5868340916498
 20
154.8739103140892
 30
0.0
 11
81.5868340916498
 21
153.6935953534593
 31
0.0
  0
LINE
  5
A6E
330
A69
100
AcDbEntity
  8
标注
370
    -2
100
AcDbLine
 10
81.5868340916498
 20
153.0435953534593
 30
0.0
 11
81.5868340916498
 21
152.3935953534593
 31
0.0
  0
SOLID
  5
A6F
330
A69
100
AcDbEntity
  8
标注
100
AcDbTrace
 10
81.47850075831648
 20
154.8739103140892
 30
0.0
 11
81.69516742498315
 21
154.8739103140892
 31
0.0
 12
81.5868340916498
 22
155.5239103140892
 32
0.0
 13
81.5868340916498
 23
155.5239103140892
 33
0.0
  0
SOLID
  5
A70
330
A69
100
AcDbEntity
  8
标注
100
AcDbTrace
 10
81.47850075831648
 20
153.6935953534593
 30
0.0
 11
81.69516742498315
 21
153.6935953534593
 31
0.0
 12
81.5868340916498
 22
153.0435953534593
 32
0.0
 13
81.5868340916498
 23
153.0435953534593
 33
0.0
  0
MTEXT
  5
A71
330
A69
100
AcDbEntity
  8
标注
100
AcDbMText
 10
81.5868340916498
 20
150.5685953534593
 30
0.0
 40
0.65
 41
0.0
 71
     5
 72
     1
  1
\A1;2 1/2"
 11
0.0000000000000001
 21
1.0
 31
0.0
 73
     1
 44
1.0
  0
POINT
  5
A72
330
A69
100
AcDbEntity
  8
Defpoints
 62
     0
100
AcDbPoint
 10
77.37616482987856
 20
155.5239103140892
 30
0.0
  0
POINT
  5
A73
330
A69
100
AcDbEntity
  8
Defpoints
 62
     0
100
AcDbPoint
 10
79.58088923932734
 20
153.0435953534593
 30
0.0
  0
POINT
  5
A74
330
A69
100
AcDbEntity
  8
Defpoints
 62
     0
100
AcDbPoint
 10
81.5868340916498
 20
153.0435953534593
 30
0.0
  0
ENDBLK
  5
A75
330
A69
100
AcDbEntity
  8
0
100
AcDbBlockEnd
  0
BLOCK
  5
A77
330
A76
100
AcDbEntity
  8
0
100
AcDbBlockBegin
  2
*D57
 70
     1
 10
0.0
 20
0.0
 30
0.0
  3
*D57
  1

  0
LINE
  5
A78
330
A76
100
AcDbEntity
  8
标注
370
    -2
100
AcDbLine
 10
78.25616482987856
 20
172.531784329837
 30
0.0
 11
81.89537774364906
 21
172.531784329837
 31
0.0
  0
LINE
  5
A79
330
A76
100
AcDbEntity
  8
标注
370
    -2
100
AcDbLine
 10
80.46088923932712
 20
174.0278473219635
 30
0.0
 11
81.89537774364902
 21
174.0278473219635
 31
0.0
  0
LINE
  5
A7A
330
A76
100
AcDbEntity
  8
标注
370
    -2
100
AcDbLine
 10
81.57537774364902
 20
171.8817843298369
 30
0.0
 11
81.57537774364902
 21
171.2317843298369
 31
0.0
  0
LINE
  5
A7B
330
A76
100
AcDbEntity
  8
标注
370
    -2
100
AcDbLine
 10
81.57537774364902
 20
174.6778473219635
 30
0.0
 11
81.57537774364902
 21
175.3278473219635
 31
0.0
  0
LINE
  5
A7C
330
A76
100
AcDbEntity
  8
标注
370
    -2
100
AcDbLine
 10
81.57537774364902
 20
172.531784329837
 30
0.0
 11
81.57537774364902
 21
174.0278473219635
 31
0.0
  0
SOLID
  5
A7D
330
A76
100
AcDbEntity
  8
标注
100
AcDbTrace
 10
81.46704441031571
 20
171.8817843298369
 30
0.0
 11
81.68371107698234
 21
171.8817843298369
 31
0.0
 12
81.57537774364902
 22
172.531784329837
 32
0.0
 13
81.57537774364902
 23
172.531784329837
 33
0.0
  0
SOLID
  5
A7E
330
A76
100
AcDbEntity
  8
标注
100
AcDbTrace
 10
81.46704441031571
 20
174.6778473219635
 30
0.0
 11
81.68371107698234
 21
174.6778473219635
 31
0.0
 12
81.57537774364902
 22
174.0278473219635
 32
0.0
 13
81.57537774364902
 23
174.0278473219635
 33
0.0
  0
MTEXT
  5
A7F
330
A76
100
AcDbEntity
  8
标注
100
AcDbMText
 10
81.575377743649
 20
177.0445139886301
 30
0.0
 40
0.65
 41
0.0
 71
     5
 72
     1
  1
\A1;1 1/2"
 11
0.0000000000000001
 21
1.0
 31
0.0
 73
     1
 44
1.0
  0
POINT
  5
A80
330
A76
100
AcDbEntity
  8
Defpoints
 62
     0
100
AcDbPoint
 10
77.37616482987856
 20
172.531784329837
 30
0.0
  0
POINT
  5
A81
330
A76
100
AcDbEntity
  8
Defpoints
 62
     0
100
AcDbPoint
 10
79.58088923932712
 20
174.0278473219635
 30
0.0
  0
POINT
  5
A82
330
A76
100
AcDbEntity
  8
Defpoints
 62
     0
100
AcDbPoint
 10
81.57537774364902
 20
174.0278473219635
 30
0.0
  0
ENDBLK
  5
A83
330
A76
100
AcDbEntity
  8
0
100
AcDbBlockEnd
  0
BLOCK
  5
A85
330
A84
100
AcDbEntity
  8
0
100
AcDbBlockBegin
  2
*D58
 70
     1
 10
0.0
 20
0.0
 30
0.0
  3
*D58
  1

  0
LINE
  5
A86
330
A84
100
AcDbEntity
  8
标注
370
    -2
100
AcDbLine
 10
48.12419632594128
 20
155.4313118888923
 30
0.0
 11
48.12419632594128
 21
150.8475526144568
 31
0.0
  0
LINE
  5
A87
330
A84
100
AcDbEntity
  8
标注
370
    -2
100
AcDbLine
 10
46.70687349129592
 20
152.1635953534593
 30
0.0
 11
46.70687349129592
 21
150.8475526144568
 31
0.0
  0
LINE
  5
A88
330
A84
100
AcDbEntity
  8
标注
370
    -2
100
AcDbLine
 10
48.77419632594127
 20
151.1675526144568
 30
0.0
 11
49.42419632594127
 21
151.1675526144568
 31
0.0
  0
LINE
  5
A89
330
A84
100
AcDbEntity
  8
标注
370
    -2
100
AcDbLine
 10
46.05687349129594
 20
151.1675526144568
 30
0.0
 11
45.40687349129592
 21
151.1675526144568
 31
0.0
  0
LINE
  5
A8A
330
A84
100
AcDbEntity
  8
标注
370
    -2
100
AcDbLine
 10
48.12419632594128
 20
151.1675526144568
 30
0.0
 11
46.70687349129592
 21
151.1675526144568
 31
0.0
  0
SOLID
  5
A8B
330
A84
100
AcDbEntity
  8
标注
100
AcDbTrace
 10
48.77419632594127
 20
151.2758859477901
 30
0.0
 11
48.77419632594127
 21
151.0592192811235
 31
0.0
 12
48.12419632594128
 22
151.1675526144568
 32
0.0
 13
48.12419632594128
 23
151.1675526144568
 33
0.0
  0
SOLID
  5
A8C
330
A84
100
AcDbEntity
  8
标注
100
AcDbTrace
 10
46.05687349129594
 20
151.2758859477901
 30
0.0
 11
46.05687349129594
 21
151.0592192811235
 31
0.0
 12
46.70687349129592
 22
151.1675526144568
 32
0.0
 13
46.70687349129592
 23
151.1675526144568
 33
0.0
  0
MTEXT
  5
A8D
330
A84
100
AcDbEntity
  8
标注
100
AcDbMText
 10
43.58187349129592
 20
151.1675526144568
 30
0.0
 40
0.65
 41
0.0
 71
     5
 72
     1
  1
\A1;1 3/8"
 73
     1
 44
1.0
  0
POINT
  5
A8E
330
A84
100
AcDbEntity
  8
Defpoints
 62
     0
100
AcDbPoint
 10
48.12419632594128
 20
156.3113118888923
 30
0.0
  0
POINT
  5
A8F
330
A84
100
AcDbEntity
  8
Defpoints
 62
     0
100
AcDbPoint
 10
46.70687349129592
 20
153.0435953534593
 30
0.0
  0
POINT
  5
A90
330
A84
100
AcDbEntity
  8
Defpoints
 62
     0
100
AcDbPoint
 10
46.70687349129592
 20
151.1675526144568
 30
0.0
  0
ENDBLK
  5
A91
330
A84
100
AcDbEntity
  8
0
100
AcDbBlockEnd
  0
BLOCK
  5
A93
330
A92
100
AcDbEntity
  8
0
100
AcDbBlockBegin
  2
*D59
 70
     1
 10
0.0
 20
0.0
 30
0.0
  3
*D59
  1

  0
LINE
  5
A94
330
A92
100
AcDbEntity
  8
标注
370
    -2
100
AcDbLine
 10
48.12419632594128
 20
155.4313118888923
 30
0.0
 11
48.12419632594128
 21
150.8475526144568
 31
0.0
  0
LINE
  5
A95
330
A92
100
AcDbEntity
  8
标注
370
    -2
100
AcDbLine
 10
78.16356640468166
 20
155.4313118888923
 30
0.0
 11
78.16356640468166
 21
150.8475526144568
 31
0.0
  0
LINE
  5
A96
330
A92
100
AcDbEntity
  8
标注
370
    -2
100
AcDbLine
 10
48.77419632594127
 20
151.1675526144568
 30
0.0
 11
62.2397146986448
 21
151.1675526144568
 31
0.0
  0
LINE
  5
A97
330
A92
100
AcDbEntity
  8
标注
370
    -2
100
AcDbLine
 10
77.51356640468165
 20
151.1675526144568
 30
0.0
 11
64.04804803197814
 21
151.1675526144568
 31
0.0
  0
SOLID
  5
A98
330
A92
100
AcDbEntity
  8
标注
100
AcDbTrace
 10
48.77419632594127
 20
151.2758859477901
 30
0.0
 11
48.77419632594127
 21
151.0592192811235
 31
0.0
 12
48.12419632594128
 22
151.1675526144568
 32
0.0
 13
48.12419632594128
 23
151.1675526144568
 33
0.0
  0
SOLID
  5
A99
330
A92
100
AcDbEntity
  8
标注
100
AcDbTrace
 10
77.51356640468165
 20
151.2758859477901
 30
0.0
 11
77.51356640468165
 21
151.0592192811235
 31
0.0
 12
78.16356640468166
 22
151.1675526144568
 32
0.0
 13
78.16356640468166
 23
151.1675526144568
 33
0.0
  0
MTEXT
  5
A9A
330
A92
100
AcDbEntity
  8
标注
100
AcDbMText
 10
63.14388136531147
 20
151.1675526144568
 30
0.0
 40
0.65
 41
0.0
 71
     5
 72
     1
  1
\A1;30"
 73
     1
 44
1.0
  0
POINT
  5
A9B
330
A92
100
AcDbEntity
  8
Defpoints
 62
     0
100
AcDbPoint
 10
48.12419632594128
 20
156.3113118888923
 30
0.0
  0
POINT
  5
A9C
330
A92
100
AcDbEntity
  8
Defpoints
 62
     0
100
AcDbPoint
 10
78.16356640468166
 20
156.3113118888923
 30
0.0
  0
POINT
  5
A9D
330
A92
100
AcDbEntity
  8
Defpoints
 62
     0
100
AcDbPoint
 10
78.16356640468166
 20
151.1675526144568
 30
0.0
  0
ENDBLK
  5
A9E
330
A92
100
AcDbEntity
  8
0
100
AcDbBlockEnd
  0
BLOCK
  5
AA0
330
A9F
100
AcDbEntity
  8
0
100
AcDbBlockBegin
  2
*D60
 70
     1
 10
0.0
 20
0.0
 30
0.0
  3
*D60
  1

  0
LINE
  5
AA1
330
A9F
100
AcDbEntity
  8
标注
370
    -2
100
AcDbLine
 10
78.25616482987856
 20
155.5239103140892
 30
0.0
 11
81.89537774364902
 21
155.5239103140892
 31
0.0
  0
LINE
  5
AA2
330
A9F
100
AcDbEntity
  8
标注
370
    -2
100
AcDbLine
 10
78.25616482987856
 20
172.531784329837
 30
0.0
 11
81.89537774364906
 21
172.531784329837
 31
0.0
  0
LINE
  5
AA3
330
A9F
100
AcDbEntity
  8
标注
370
    -2
100
AcDbLine
 10
81.57537774364902
 20
156.1739103140892
 30
0.0
 11
81.57537774364902
 21
163.1778473219631
 31
0.0
  0
LINE
  5
AA4
330
A9F
100
AcDbEntity
  8
标注
370
    -2
100
AcDbLine
 10
81.57537774364902
 20
171.8817843298369
 30
0.0
 11
81.57537774364902
 21
164.8778473219631
 31
0.0
  0
SOLID
  5
AA5
330
A9F
100
AcDbEntity
  8
标注
100
AcDbTrace
 10
81.46704441031568
 20
156.1739103140892
 30
0.0
 11
81.68371107698234
 21
156.1739103140892
 31
0.0
 12
81.57537774364902
 22
155.5239103140892
 32
0.0
 13
81.57537774364902
 23
155.5239103140892
 33
0.0
  0
SOLID
  5
AA6
330
A9F
100
AcDbEntity
  8
标注
100
AcDbTrace
 10
81.46704441031571
 20
171.8817843298369
 30
0.0
 11
81.68371107698234
 21
171.8817843298369
 31
0.0
 12
81.57537774364902
 22
172.531784329837
 32
0.0
 13
81.57537774364902
 23
172.531784329837
 33
0.0
  0
MTEXT
  5
AA7
330
A9F
100
AcDbEntity
  8
标注
100
AcDbMText
 10
81.575377743649
 20
164.0278473219631
 30
0.0
 40
0.65
 41
0.0
 71
     5
 72
     1
  1
\A1;17"
 11
0.0000000000000001
 21
1.0
 31
0.0
 73
     1
 44
1.0
  0
POINT
  5
AA8
330
A9F
100
AcDbEntity
  8
Defpoints
 62
     0
100
AcDbPoint
 10
77.37616482987856
 20
155.5239103140892
 30
0.0
  0
POINT
  5
AA9
330
A9F
100
AcDbEntity
  8
Defpoints
 62
     0
100
AcDbPoint
 10
77.37616482987856
 20
172.531784329837
 30
0.0
  0
POINT
  5
AAA
330
A9F
100
AcDbEntity
  8
Defpoints
 62
     0
100
AcDbPoint
 10
81.57537774364902
 20
172.531784329837
 30
0.0
  0
ENDBLK
  5
AAB
330
A9F
100
AcDbEntity
  8
0
100
AcDbBlockEnd
  0
BLOCK
  5
AAD
330
AAC
100
AcDbEntity
  8
0
100
AcDbBlockBegin
  2
*D61
 70
     1
 10
0.0
 20
0.0
 30
0.0
  3
*D61
  1

  0
LINE
  5
AAE
330
AAC
100
AcDbEntity
  8
标注
370
    -2
100
AcDbLine
 10
68.48355365601105
 20
172.5317843298372
 30
0.0
 11
71.2716785918076
 21
172.5317843298372
 31
0.0
  0
LINE
  5
AAF
330
AAC
100
AcDbEntity
  8
标注
370
    -2
100
AcDbLine
 10
68.43017916770907
 20
167.0199733062149
 30
0.0
 11
71.2716785918076
 21
167.0199733062149
 31
0.0
  0
LINE
  5
AB0
330
AAC
100
AcDbEntity
  8
标注
370
    -2
100
AcDbLine
 10
70.95167859180761
 20
171.8817843298372
 30
0.0
 11
70.95167859180761
 21
167.6699733062149
 31
0.0
  0
LINE
  5
AB1
330
AAC
100
AcDbEntity
  8
标注
370
    -2
100
AcDbLine
 10
70.95167859180761
 20
167.0199733062149
 30
0.0
 11
70.95167859180761
 21
166.3699733062149
 31
0.0
  0
SOLID
  5
AB2
330
AAC
100
AcDbEntity
  8
标注
100
AcDbTrace
 10
70.84334525847426
 20
171.8817843298372
 30
0.0
 11
71.06001192514094
 21
171.8817843298372
 31
0.0
 12
70.95167859180761
 22
172.5317843298372
 32
0.0
 13
70.95167859180761
 23
172.5317843298372
 33
0.0
  0
SOLID
  5
AB3
330
AAC
100
AcDbEntity
  8
标注
100
AcDbTrace
 10
70.84334525847426
 20
167.6699733062149
 30
0.0
 11
71.06001192514094
 21
167.6699733062149
 31
0.0
 12
70.95167859180761
 22
167.0199733062149
 32
0.0
 13
70.95167859180761
 23
167.0199733062149
 33
0.0
  0
MTEXT
  5
AB4
330
AAC
100
AcDbEntity
  8
标注
100
AcDbMText
 10
70.95167859180758
 20
164.5449733062149
 30
0.0
 40
0.65
 41
0.0
 71
     5
 72
     1
  1
\A1;5 1/2"
 11
0.0000000000000001
 21
1.0
 31
0.0
 73
     1
 44
1.0
  0
POINT
  5
AB5
330
AAC
100
AcDbEntity
  8
Defpoints
 62
     0
100
AcDbPoint
 10
67.60355365601107
 20
172.5317843298372
 30
0.0
  0
POINT
  5
AB6
330
AAC
100
AcDbEntity
  8
Defpoints
 62
     0
100
AcDbPoint
 10
67.55017916770907
 20
167.0199733062149
 30
0.0
  0
POINT
  5
AB7
330
AAC
100
AcDbEntity
  8
Defpoints
 62
     0
100
AcDbPoint
 10
70.95167859180761
 20
167.0199733062149
 30
0.0
  0
ENDBLK
  5
AB8
330
AAC
100
AcDbEntity
  8
0
100
AcDbBlockEnd
  0
BLOCK
  5
ABA
330
AB9
100
AcDbEntity
  8
0
100
AcDbBlockBegin
  2
*D62
 70
     1
 10
0.0
 20
0.0
 30
0.0
  3
*D62
  1

  0
LINE
  5
ABB
330
AB9
100
AcDbEntity
  8
标注
370
    -2
100
AcDbLine
 10
46.70687349129592
 20
152.1635953534593
 30
0.0
 11
46.70687349129592
 21
149.3793647233131
 31
0.0
  0
LINE
  5
ABC
330
AB9
100
AcDbEntity
  8
标注
370
    -2
100
AcDbLine
 10
79.58088923932734
 20
152.1635953534593
 30
0.0
 11
79.58088923932734
 21
149.3793647233131
 31
0.0
  0
LINE
  5
ABD
330
AB9
100
AcDbEntity
  8
标注
370
    -2
100
AcDbLine
 10
47.35687349129594
 20
149.6993647233131
 30
0.0
 11
60.88554803197831
 21
149.6993647233131
 31
0.0
  0
LINE
  5
ABE
330
AB9
100
AcDbEntity
  8
标注
370
    -2
100
AcDbLine
 10
78.93088923932734
 20
149.6993647233131
 30
0.0
 11
65.40221469864497
 21
149.6993647233131
 31
0.0
  0
SOLID
  5
ABF
330
AB9
100
AcDbEntity
  8
标注
100
AcDbTrace
 10
47.35687349129594
 20
149.8076980566464
 30
0.0
 11
47.35687349129594
 21
149.5910313899798
 31
0.0
 12
46.70687349129592
 22
149.6993647233131
 32
0.0
 13
46.70687349129592
 23
149.6993647233131
 33
0.0
  0
SOLID
  5
AC0
330
AB9
100
AcDbEntity
  8
标注
100
AcDbTrace
 10
78.93088923932734
 20
149.8076980566464
 30
0.0
 11
78.93088923932734
 21
149.5910313899798
 31
0.0
 12
79.58088923932734
 22
149.6993647233131
 32
0.0
 13
79.58088923932734
 23
149.6993647233131
 33
0.0
  0
MTEXT
  5
AC1
330
AB9
100
AcDbEntity
  8
标注
100
AcDbMText
 10
63.14388136531164
 20
149.6993647233131
 30
0.0
 40
0.65
 41
0.0
 71
     5
 72
     1
  1
\A1;32 7/8"
 73
     1
 44
1.0
  0
POINT
  5
AC2
330
AB9
100
AcDbEntity
  8
Defpoints
 62
     0
100
AcDbPoint
 10
46.70687349129592
 20
153.0435953534593
 30
0.0
  0
POINT
  5
AC3
330
AB9
100
AcDbEntity
  8
Defpoints
 62
     0
100
AcDbPoint
 10
79.58088923932734
 20
153.0435953534593
 30
0.0
  0
POINT
  5
AC4
330
AB9
100
AcDbEntity
  8
Defpoints
 62
     0
100
AcDbPoint
 10
79.58088923932734
 20
149.6993647233131
 30
0.0
  0
ENDBLK
  5
AC5
330
AB9
100
AcDbEntity
  8
0
100
AcDbBlockEnd
  0
BLOCK
  5
AC7
330
AC6
100
AcDbEntity
  8
0
100
AcDbBlockBegin
  2
*D63
 70
     1
 10
0.0
 20
0.0
 30
0.0
  3
*D63
  1

  0
LINE
  5
AC8
330
AC6
100
AcDbEntity
  8
标注
370
    -2
100
AcDbLine
 10
80.46088923932744
 20
174.0278473219632
 30
0.0
 11
83.30473352108532
 21
174.0278473219632
 31
0.0
  0
LINE
  5
AC9
330
AC6
100
AcDbEntity
  8
标注
370
    -2
100
AcDbLine
 10
80.46088923932744
 20
153.0435953534593
 30
0.0
 11
83.30473352108532
 21
153.0435953534593
 31
0.0
  0
LINE
  5
ACA
330
AC6
100
AcDbEntity
  8
标注
370
    -2
100
AcDbLine
 10
82.98473352108535
 20
173.3778473219632
 30
0.0
 11
82.98473352108535
 21
164.3857213377112
 31
0.0
  0
LINE
  5
ACB
330
AC6
100
AcDbEntity
  8
标注
370
    -2
100
AcDbLine
 10
82.98473352108533
 20
153.6935953534593
 30
0.0
 11
82.98473352108535
 21
162.6857213377112
 31
0.0
  0
SOLID
  5
ACC
330
AC6
100
AcDbEntity
  8
标注
100
AcDbTrace
 10
82.87640018775201
 20
173.3778473219632
 30
0.0
 11
83.09306685441869
 21
173.3778473219632
 31
0.0
 12
82.98473352108535
 22
174.0278473219632
 32
0.0
 13
82.98473352108535
 23
174.0278473219632
 33
0.0
  0
SOLID
  5
ACD
330
AC6
100
AcDbEntity
  8
标注
100
AcDbTrace
 10
82.87640018775197
 20
153.6935953534593
 30
0.0
 11
83.09306685441866
 21
153.6935953534593
 31
0.0
 12
82.98473352108533
 22
153.0435953534593
 32
0.0
 13
82.98473352108533
 23
153.0435953534593
 33
0.0
  0
MTEXT
  5
ACE
330
AC6
100
AcDbEntity
  8
标注
100
AcDbMText
 10
82.9847335210853
 20
163.5357213377113
 30
0.0
 40
0.65
 41
0.0
 71
     5
 72
     1
  1
\A1;21"
 11
0.0000000000000001
 21
1.0
 31
0.0
 73
     1
 44
1.0
  0
POINT
  5
ACF
330
AC6
100
AcDbEntity
  8
Defpoints
 62
     0
100
AcDbPoint
 10
79.58088923932745
 20
174.0278473219632
 30
0.0
  0
POINT
  5
AD0
330
AC6
100
AcDbEntity
  8
Defpoints
 62
     0
100
AcDbPoint
 10
79.58088923932745
 20
153.0435953534593
 30
0.0
  0
POINT
  5
AD1
330
AC6
100
AcDbEntity
  8
Defpoints
 62
     0
100
AcDbPoint
 10
82.98473352108533
 20
153.0435953534593
 30
0.0
  0
ENDBLK
  5
AD2
330
AC6
100
AcDbEntity
  8
0
100
AcDbBlockEnd
  0
BLOCK
  5
AD4
330
AD3
100
AcDbEntity
  8
0
100
AcDbBlockBegin
  2
*D64
 70
     1
 10
0.0
 20
0.0
 30
0.0
  3
*D64
  1

  0
LINE
  5
AD5
330
AD3
100
AcDbEntity
  8
标注
370
    -2
100
AcDbLine
 10
60.23097740342131
 20
165.9275180505
 30
0.0
 11
60.83958338179147
 21
166.1557695851982
 31
0.0
  0
LINE
  5
AD6
330
AD3
100
AcDbEntity
  8
标注
370
    -2
100
AcDbLine
 10
65.4481793488319
 20
167.8841770272316
 30
0.0
 11
66.05678532720204
 21
168.1124285619298
 31
0.0
  0
MTEXT
  5
AD7
330
AD3
100
AcDbEntity
  8
标注
100
AcDbMText
 10
58.11646176062243
 20
165.1344902825099
 30
0.0
 40
0.65
 41
0.0
 71
     5
 72
     1
  1
\A1;\U+22053 5/8"
 11
0.936316889800252
 21
0.3511562072280411
 31
0.0
 73
     1
 44
1.0
  0
LINE
  5
AD8
330
AD3
100
AcDbEntity
  8
标注
370
    -2
100
AcDbLine
 10
64.83957337046174
 20
167.6559254925334
 30
0.0
 11
61.44818936016164
 21
166.3840211198964
 31
0.0
  0
SOLID
  5
AD9
330
AD3
100
AcDbEntity
  8
标注
100
AcDbTrace
 10
65.41013742638219
 20
167.9856113569599
 30
0.0
 11
65.48622127128161
 21
167.7827426975033
 31
0.0
 12
64.83957337046174
 22
167.6559254925334
 32
0.0
 13
64.83957337046174
 23
167.6559254925334
 33
0.0
  0
SOLID
  5
ADA
330
AD3
100
AcDbEntity
  8
标注
100
AcDbTrace
 10
60.80154145934177
 20
166.2572039149265
 30
0.0
 11
60.87762530424117
 21
166.0543352554698
 31
0.0
 12
61.44818936016164
 22
166.3840211198964
 32
0.0
 13
61.44818936016164
 23
166.3840211198964
 33
0.0
  0
POINT
  5
ADB
330
AD3
100
AcDbEntity
  8
Defpoints
 62
     0
100
AcDbPoint
 10
61.44818936016164
 20
166.3840211198964
 30
0.0
  0
POINT
  5
ADC
330
AD3
100
AcDbEntity
  8
Defpoints
 62
     0
100
AcDbPoint
 10
64.83957337046174
 20
167.6559254925334
 30
0.0
  0
ENDBLK
  5
ADD
330
AD3
100
AcDbEntity
  8
0
100
AcDbBlockEnd
  0
BLOCK
  5
ADF
330
ADE
100
AcDbEntity
  8
0
100
AcDbBlockBegin
  2
*D65
 70
     1
 10
0.0
 20
0.0
 30
0.0
  3
*D65
  1

  0
LINE
  5
AE0
330
ADE
100
AcDbEntity
  8
标注
370
    -2
100
AcDbLine
 10
80.46088923932744
 20
193.99528017428
 30
0.0
 11
81.88204761818663
 21
193.99528017428
 31
0.0
  0
LINE
  5
AE1
330
ADE
100
AcDbEntity
  8
标注
370
    -2
100
AcDbLine
 10
78.25616482987868
 20
184.1527604892405
 30
0.0
 11
81.88204761818663
 21
184.1527604892405
 31
0.0
  0
LINE
  5
AE2
330
ADE
100
AcDbEntity
  8
标注
370
    -2
100
AcDbLine
 10
81.56204761818662
 20
193.3452801742799
 30
0.0
 11
81.56204761818662
 21
191.0073536650936
 31
0.0
  0
LINE
  5
AE3
330
ADE
100
AcDbEntity
  8
标注
370
    -2
100
AcDbLine
 10
81.56204761818662
 20
184.8027604892406
 30
0.0
 11
81.56204761818662
 21
187.1406869984269
 31
0.0
  0
SOLID
  5
AE4
330
ADE
100
AcDbEntity
  8
标注
100
AcDbTrace
 10
81.45371428485329
 20
193.3452801742799
 30
0.0
 11
81.67038095151996
 21
193.3452801742799
 31
0.0
 12
81.56204761818662
 22
193.99528017428
 32
0.0
 13
81.56204761818662
 23
193.99528017428
 33
0.0
  0
SOLID
  5
AE5
330
ADE
100
AcDbEntity
  8
标注
100
AcDbTrace
 10
81.45371428485329
 20
184.8027604892406
 30
0.0
 11
81.67038095151996
 21
184.8027604892406
 31
0.0
 12
81.56204761818662
 22
184.1527604892405
 32
0.0
 13
81.56204761818662
 23
184.1527604892405
 33
0.0
  0
MTEXT
  5
AE6
330
ADE
100
AcDbEntity
  8
标注
100
AcDbMText
 10
81.5620476181866
 20
189.0740203317603
 30
0.0
 40
0.65
 41
0.0
 71
     5
 72
     1
  1
\A1;9 7/8"
 11
0.0000000000000001
 21
1.0
 31
0.0
 73
     1
 44
1.0
  0
POINT
  5
AE7
330
ADE
100
AcDbEntity
  8
Defpoints
 62
     0
100
AcDbPoint
 10
79.58088923932745
 20
193.99528017428
 30
0.0
  0
POINT
  5
AE8
330
ADE
100
AcDbEntity
  8
Defpoints
 62
     0
100
AcDbPoint
 10
77.37616482987869
 20
184.1527604892405
 30
0.0
  0
POINT
  5
AE9
330
ADE
100
AcDbEntity
  8
Defpoints
 62
     0
100
AcDbPoint
 10
81.56204761818662
 20
184.1527604892405
 30
0.0
  0
ENDBLK
  5
AEA
330
ADE
100
AcDbEntity
  8
0
100
AcDbBlockEnd
  0
BLOCK
  5
AEC
330
AEB
100
AcDbEntity
  8
0
100
AcDbBlockBegin
  2
*D66
 70
     1
 10
0.0
 20
0.0
 30
0.0
  3
*D66
  1

  0
LINE
  5
AED
330
AEB
100
AcDbEntity
  8
标注
370
    -2
100
AcDbLine
 10
49.35772497400751
 20
171.1785590632027
 30
0.0
 11
48.82652546251998
 21
171.8522802666495
 31
0.0
  0
MTEXT
  5
AEE
330
AEB
100
AcDbEntity
  8
标注
100
AcDbMText
 10
50.3535275209651
 20
169.9155810750399
 30
0.0
 40
0.65
 41
0.0
 71
     5
 72
     1
  1
\A1;R3/4"
 11
0.6191518426679261
 21
-0.785271287976908
 31
0.0
 73
     1
 44
1.0
  0
SOLID
  5
AEF
330
AEB
100
AcDbEntity
  8
标注
100
AcDbTrace
 10
48.91159651871745
 20
171.9193550496052
 30
0.0
 11
48.74145440632249
 21
171.7852054836938
 31
0.0
 12
48.42407676478583
 22
172.3627066038345
 32
0.0
 13
48.42407676478583
 23
172.3627066038345
 33
0.0
  0
POINT
  5
AF0
330
AEB
100
AcDbEntity
  8
Defpoints
 62
     0
100
AcDbPoint
 10
48.42407676478583
 20
172.3627066038345
 30
0.0
  0
POINT
  5
AF1
330
AEB
100
AcDbEntity
  8
Defpoints
 62
     0
100
AcDbPoint
 10
48.91159790074475
 20
171.7443827550338
 30
0.0
  0
ENDBLK
  5
AF2
330
AEB
100
AcDbEntity
  8
0
100
AcDbBlockEnd
  0
BLOCK
  5
C2C
330
C21
100
AcDbEntity
  8
0
100
AcDbBlockBegin
  2
*D67
 70
     1
 10
0.0
 20
0.0
 30
0.0
  3
*D67
  1

  0
LINE
  5
C91
330
C21
100
AcDbEntity
  8
标注
370
    -2
100
AcDbLine
 10
342.536527062575
 20
174.9759377262499
 30
0.0
 11
345.3246519983717
 21
174.9759377262499
 31
0.0
  0
LINE
  5
C92
330
C21
100
AcDbEntity
  8
标注
370
    -2
100
AcDbLine
 10
342.483152574273
 20
169.4641267026276
 30
0.0
 11
345.3246519983717
 21
169.4641267026276
 31
0.0
  0
LINE
  5
C93
330
C21
100
AcDbEntity
  8
标注
370
    -2
100
AcDbLine
 10
345.0046519983717
 20
174.3259377262499
 30
0.0
 11
345.0046519983717
 21
170.1141267026276
 31
0.0
  0
LINE
  5
C94
330
C21
100
AcDbEntity
  8
标注
370
    -2
100
AcDbLine
 10
345.0046519983717
 20
169.4641267026276
 30
0.0
 11
345.0046519983717
 21
168.8141267026275
 31
0.0
  0
SOLID
  5
C95
330
C21
100
AcDbEntity
  8
标注
100
AcDbTrace
 10
344.8963186650383
 20
174.3259377262499
 30
0.0
 11
345.112985331705
 21
174.3259377262499
 31
0.0
 12
345.0046519983717
 22
174.9759377262499
 32
0.0
 13
345.0046519983717
 23
174.9759377262499
 33
0.0
  0
SOLID
  5
C96
330
C21
100
AcDbEntity
  8
标注
100
AcDbTrace
 10
344.8963186650383
 20
170.1141267026276
 30
0.0
 11
345.112985331705
 21
170.1141267026276
 31
0.0
 12
345.0046519983717
 22
169.4641267026276
 32
0.0
 13
345.0046519983717
 23
169.4641267026276
 33
0.0
  0
MTEXT
  5
C97
330
C21
100
AcDbEntity
  8
标注
100
AcDbMText
 10
345.0046519983717
 20
166.9891267026276
 30
0.0
 40
0.65
 41
0.0
 71
     5
 72
     1
  1
\A1;5 1/2"
 11
0.0000000000000001
 21
1.0
 31
0.0
 73
     1
 44
1.0
  0
POINT
  5
C98
330
C21
100
AcDbEntity
  8
Defpoints
 62
     0
100
AcDbPoint
 10
341.656527062575
 20
174.9759377262499
 30
0.0
  0
POINT
  5
C99
330
C21
100
AcDbEntity
  8
Defpoints
 62
     0
100
AcDbPoint
 10
341.603152574273
 20
169.4641267026276
 30
0.0
  0
POINT
  5
C9A
330
C21
100
AcDbEntity
  8
Defpoints
 62
     0
100
AcDbPoint
 10
345.0046519983717
 20
169.4641267026276
 30
0.0
  0
ENDBLK
  5
C2D
330
C21
100
AcDbEntity
  8
0
100
AcDbBlockEnd
  0
BLOCK
  5
C39
330
C2E
100
AcDbEntity
  8
0
100
AcDbBlockBegin
  2
*D68
 70
     1
 10
0.0
 20
0.0
 30
0.0
  3
*D68
  1

  0
LINE
  5
CA8
330
C2E
100
AcDbEntity
  8
标注
370
    -2
100
AcDbLine
 10
352.3091382364425
 20
157.9680637105019
 30
0.0
 11
355.948351150213
 21
157.9680637105019
 31
0.0
  0
LINE
  5
CA9
330
C2E
100
AcDbEntity
  8
标注
370
    -2
100
AcDbLine
 10
352.3091382364425
 20
174.9759377262497
 30
0.0
 11
355.948351150213
 21
174.9759377262497
 31
0.0
  0
LINE
  5
CAA
330
C2E
100
AcDbEntity
  8
标注
370
    -2
100
AcDbLine
 10
355.628351150213
 20
158.6180637105019
 30
0.0
 11
355.628351150213
 21
165.6220007183758
 31
0.0
  0
LINE
  5
CAB
330
C2E
100
AcDbEntity
  8
标注
370
    -2
100
AcDbLine
 10
355.628351150213
 20
174.3259377262497
 30
0.0
 11
355.628351150213
 21
167.3220007183758
 31
0.0
  0
SOLID
  5
CAC
330
C2E
100
AcDbEntity
  8
标注
100
AcDbTrace
 10
355.5200178168797
 20
158.6180637105019
 30
0.0
 11
355.7366844835464
 21
158.6180637105019
 31
0.0
 12
355.628351150213
 22
157.9680637105019
 32
0.0
 13
355.628351150213
 23
157.9680637105019
 33
0.0
  0
SOLID
  5
CAD
330
C2E
100
AcDbEntity
  8
标注
100
AcDbTrace
 10
355.5200178168797
 20
174.3259377262497
 30
0.0
 11
355.7366844835464
 21
174.3259377262497
 31
0.0
 12
355.628351150213
 22
174.9759377262497
 32
0.0
 13
355.628351150213
 23
174.9759377262497
 33
0.0
  0
MTEXT
  5
CAE
330
C2E
100
AcDbEntity
  8
标注
100
AcDbMText
 10
355.628351150213
 20
166.4720007183759
 30
0.0
 40
0.65
 41
0.0
 71
     5
 72
     1
  1
\A1;17"
 11
0.0000000000000001
 21
1.0
 31
0.0
 73
     1
 44
1.0
  0
POINT
  5
CAF
330
C2E
100
AcDbEntity
  8
Defpoints
 62
     0
100
AcDbPoint
 10
351.4291382364425
 20
157.9680637105019
 30
0.0
  0
POINT
  5
CB0
330
C2E
100
AcDbEntity
  8
Defpoints
 62
     0
100
AcDbPoint
 10
351.4291382364425
 20
174.9759377262497
 30
0.0
  0
POINT
  5
CB1
330
C2E
100
AcDbEntity
  8
Defpoints
 62
     0
100
AcDbPoint
 10
355.628351150213
 20
174.9759377262497
 30
0.0
  0
ENDBLK
  5
C3A
330
C2E
100
AcDbEntity
  8
0
100
AcDbBlockEnd
  0
BLOCK
  5
C46
330
C3B
100
AcDbEntity
  8
0
100
AcDbBlockBegin
  2
*D69
 70
     1
 10
0.0
 20
0.0
 30
0.0
  3
*D69
  1

  0
LINE
  5
CB2
330
C3B
100
AcDbEntity
  8
标注
370
    -2
100
AcDbLine
 10
322.1771697325053
 20
157.875465285305
 30
0.0
 11
322.1771697325053
 21
153.2917060108695
 31
0.0
  0
LINE
  5
CB3
330
C3B
100
AcDbEntity
  8
标注
370
    -2
100
AcDbLine
 10
352.2165398112456
 20
157.875465285305
 30
0.0
 11
352.2165398112456
 21
153.2917060108695
 31
0.0
  0
LINE
  5
CB4
330
C3B
100
AcDbEntity
  8
标注
370
    -2
100
AcDbLine
 10
322.8271697325052
 20
153.6117060108695
 30
0.0
 11
336.2926881052088
 21
153.6117060108695
 31
0.0
  0
LINE
  5
CB5
330
C3B
100
AcDbEntity
  8
标注
370
    -2
100
AcDbLine
 10
351.5665398112457
 20
153.6117060108695
 30
0.0
 11
338.1010214385422
 21
153.6117060108695
 31
0.0
  0
SOLID
  5
CB6
330
C3B
100
AcDbEntity
  8
标注
100
AcDbTrace
 10
322.8271697325052
 20
153.7200393442028
 30
0.0
 11
322.8271697325052
 21
153.5033726775362
 31
0.0
 12
322.1771697325053
 22
153.6117060108695
 32
0.0
 13
322.1771697325053
 23
153.6117060108695
 33
0.0
  0
SOLID
  5
CB7
330
C3B
100
AcDbEntity
  8
标注
100
AcDbTrace
 10
351.5665398112457
 20
153.7200393442028
 30
0.0
 11
351.5665398112457
 21
153.5033726775362
 31
0.0
 12
352.2165398112456
 22
153.6117060108695
 32
0.0
 13
352.2165398112456
 23
153.6117060108695
 33
0.0
  0
MTEXT
  5
CB8
330
C3B
100
AcDbEntity
  8
标注
100
AcDbMText
 10
337.1968547718755
 20
153.6117060108695
 30
0.0
 40
0.65
 41
0.0
 71
     5
 72
     1
  1
\A1;30"
 73
     1
 44
1.0
  0
POINT
  5
CB9
330
C3B
100
AcDbEntity
  8
Defpoints
 62
     0
100
AcDbPoint
 10
322.1771697325053
 20
158.755465285305
 30
0.0
  0
POINT
  5
CBA
330
C3B
100
AcDbEntity
  8
Defpoints
 62
     0
100
AcDbPoint
 10
352.2165398112456
 20
158.755465285305
 30
0.0
  0
POINT
  5
CBB
330
C3B
100
AcDbEntity
  8
Defpoints
 62
     0
100
AcDbPoint
 10
352.2165398112456
 20
153.6117060108695
 30
0.0
  0
ENDBLK
  5
C47
330
C3B
100
AcDbEntity
  8
0
100
AcDbBlockEnd
  0
BLOCK
  5
C54
330
C48
100
AcDbEntity
  8
0
100
AcDbBlockBegin
  2
*D70
 70
     1
 10
0.0
 20
0.0
 30
0.0
  3
*D70
  1

  0
LINE
  5
CC9
330
C48
100
AcDbEntity
  8
标注
370
    -2
100
AcDbLine
 10
322.1771697325053
 20
157.875465285305
 30
0.0
 11
322.1771697325053
 21
153.2917060108695
 31
0.0
  0
LINE
  5
CCA
330
C48
100
AcDbEntity
  8
标注
370
    -2
100
AcDbLine
 10
320.7598468978599
 20
154.607748749872
 30
0.0
 11
320.7598468978599
 21
153.2917060108695
 31
0.0
  0
LINE
  5
CCB
330
C48
100
AcDbEntity
  8
标注
370
    -2
100
AcDbLine
 10
322.8271697325052
 20
153.6117060108695
 30
0.0
 11
323.4771697325053
 21
153.6117060108695
 31
0.0
  0
LINE
  5
CCC
330
C48
100
AcDbEntity
  8
标注
370
    -2
100
AcDbLine
 10
320.1098468978599
 20
153.6117060108695
 30
0.0
 11
319.4598468978599
 21
153.6117060108695
 31
0.0
  0
LINE
  5
CCD
330
C48
100
AcDbEntity
  8
标注
370
    -2
100
AcDbLine
 10
322.1771697325053
 20
153.6117060108695
 30
0.0
 11
320.7598468978599
 21
153.6117060108695
 31
0.0
  0
SOLID
  5
CCE
330
C48
100
AcDbEntity
  8
标注
100
AcDbTrace
 10
322.8271697325052
 20
153.7200393442028
 30
0.0
 11
322.8271697325052
 21
153.5033726775362
 31
0.0
 12
322.1771697325053
 22
153.6117060108695
 32
0.0
 13
322.1771697325053
 23
153.6117060108695
 33
0.0
  0
SOLID
  5
CCF
330
C48
100
AcDbEntity
  8
标注
100
AcDbTrace
 10
320.1098468978599
 20
153.7200393442028
 30
0.0
 11
320.1098468978599
 21
153.5033726775362
 31
0.0
 12
320.7598468978599
 22
153.6117060108695
 32
0.0
 13
320.7598468978599
 23
153.6117060108695
 33
0.0
  0
MTEXT
  5
CD0
330
C48
100
AcDbEntity
  8
标注
100
AcDbMText
 10
317.6348468978599
 20
153.6117060108695
 30
0.0
 40
0.65
 41
0.0
 71
     5
 72
     1
  1
\A1;1 3/8"
 73
     1
 44
1.0
  0
POINT
  5
CD1
330
C48
100
AcDbEntity
  8
Defpoints
 62
     0
100
AcDbPoint
 10
322.1771697325053
 20
158.755465285305
 30
0.0
  0
POINT
  5
CD2
330
C48
100
AcDbEntity
  8
Defpoints
 62
     0
100
AcDbPoint
 10
320.7598468978599
 20
155.487748749872
 30
0.0
  0
POINT
  5
CD3
330
C48
100
AcDbEntity
  8
Defpoints
 62
     0
100
AcDbPoint
 10
320.7598468978599
 20
153.6117060108695
 30
0.0
  0
ENDBLK
  5
C55
330
C48
100
AcDbEntity
  8
0
100
AcDbBlockEnd
  0
BLOCK
  5
C62
330
C56
100
AcDbEntity
  8
0
100
AcDbBlockBegin
  2
*D71
 70
     1
 10
0.0
 20
0.0
 30
0.0
  3
*D71
  1

  0
LINE
  5
CD4
330
C56
100
AcDbEntity
  8
标注
370
    -2
100
AcDbLine
 10
352.3091382364425
 20
174.9759377262497
 30
0.0
 11
355.9483511502131
 21
174.9759377262497
 31
0.0
  0
LINE
  5
CD5
330
C56
100
AcDbEntity
  8
标注
370
    -2
100
AcDbLine
 10
354.5138626458911
 20
176.4720007183762
 30
0.0
 11
355.9483511502131
 21
176.4720007183762
 31
0.0
  0
LINE
  5
CD6
330
C56
100
AcDbEntity
  8
标注
370
    -2
100
AcDbLine
 10
355.628351150213
 20
174.3259377262497
 30
0.0
 11
355.628351150213
 21
173.6759377262497
 31
0.0
  0
LINE
  5
CD7
330
C56
100
AcDbEntity
  8
标注
370
    -2
100
AcDbLine
 10
355.628351150213
 20
177.1220007183762
 30
0.0
 11
355.628351150213
 21
177.7720007183762
 31
0.0
  0
LINE
  5
CD8
330
C56
100
AcDbEntity
  8
标注
370
    -2
100
AcDbLine
 10
355.628351150213
 20
174.9759377262497
 30
0.0
 11
355.628351150213
 21
176.4720007183762
 31
0.0
  0
SOLID
  5
CD9
330
C56
100
AcDbEntity
  8
标注
100
AcDbTrace
 10
355.5200178168797
 20
174.3259377262497
 30
0.0
 11
355.7366844835464
 21
174.3259377262497
 31
0.0
 12
355.628351150213
 22
174.9759377262497
 32
0.0
 13
355.628351150213
 23
174.9759377262497
 33
0.0
  0
SOLID
  5
CDA
330
C56
100
AcDbEntity
  8
标注
100
AcDbTrace
 10
355.5200178168797
 20
177.1220007183762
 30
0.0
 11
355.7366844835464
 21
177.1220007183762
 31
0.0
 12
355.628351150213
 22
176.4720007183762
 32
0.0
 13
355.628351150213
 23
176.4720007183762
 33
0.0
  0
MTEXT
  5
CDB
330
C56
100
AcDbEntity
  8
标注
100
AcDbMText
 10
355.628351150213
 20
179.4886673850429
 30
0.0
 40
0.65
 41
0.0
 71
     5
 72
     1
  1
\A1;1 1/2"
 11
0.0000000000000001
 21
1.0
 31
0.0
 73
     1
 44
1.0
  0
POINT
  5
CDC
330
C56
100
AcDbEntity
  8
Defpoints
 62
     0
100
AcDbPoint
 10
351.4291382364425
 20
174.9759377262497
 30
0.0
  0
POINT
  5
CDD
330
C56
100
AcDbEntity
  8
Defpoints
 62
     0
100
AcDbPoint
 10
353.6338626458911
 20
176.4720007183762
 30
0.0
  0
POINT
  5
CDE
330
C56
100
AcDbEntity
  8
Defpoints
 62
     0
100
AcDbPoint
 10
355.628351150213
 20
176.4720007183762
 30
0.0
  0
ENDBLK
  5
C63
330
C56
100
AcDbEntity
  8
0
100
AcDbBlockEnd
  0
BLOCK
  5
C6F
330
C64
100
AcDbEntity
  8
0
100
AcDbBlockBegin
  2
*D72
 70
     1
 10
0.0
 20
0.0
 30
0.0
  3
*D72
  1

  0
LINE
  5
CDF
330
C64
100
AcDbEntity
  8
标注
370
    -2
100
AcDbLine
 10
352.3091382364425
 20
157.9680637105019
 30
0.0
 11
355.9598074982138
 21
157.9680637105019
 31
0.0
  0
LINE
  5
CE0
330
C64
100
AcDbEntity
  8
标注
370
    -2
100
AcDbLine
 10
354.5138626458913
 20
155.487748749872
 30
0.0
 11
355.9598074982138
 21
155.487748749872
 31
0.0
  0
LINE
  5
CE1
330
C64
100
AcDbEntity
  8
标注
370
    -2
100
AcDbLine
 10
355.6398074982138
 20
157.3180637105019
 30
0.0
 11
355.6398074982138
 21
156.137748749872
 31
0.0
  0
LINE
  5
CE2
330
C64
100
AcDbEntity
  8
标注
370
    -2
100
AcDbLine
 10
355.6398074982138
 20
155.487748749872
 30
0.0
 11
355.6398074982138
 21
154.837748749872
 31
0.0
  0
SOLID
  5
CE3
330
C64
100
AcDbEntity
  8
标注
100
AcDbTrace
 10
355.5314741648806
 20
157.3180637105019
 30
0.0
 11
355.7481408315472
 21
157.3180637105019
 31
0.0
 12
355.6398074982138
 22
157.9680637105019
 32
0.0
 13
355.6398074982138
 23
157.9680637105019
 33
0.0
  0
SOLID
  5
CE4
330
C64
100
AcDbEntity
  8
标注
100
AcDbTrace
 10
355.5314741648806
 20
156.137748749872
 30
0.0
 11
355.7481408315472
 21
156.137748749872
 31
0.0
 12
355.6398074982138
 22
155.487748749872
 32
0.0
 13
355.6398074982138
 23
155.487748749872
 33
0.0
  0
MTEXT
  5
CE5
330
C64
100
AcDbEntity
  8
标注
100
AcDbMText
 10
355.6398074982138
 20
153.012748749872
 30
0.0
 40
0.65
 41
0.0
 71
     5
 72
     1
  1
\A1;2 1/2"
 11
0.0000000000000001
 21
1.0
 31
0.0
 73
     1
 44
1.0
  0
POINT
  5
CE6
330
C64
100
AcDbEntity
  8
Defpoints
 62
     0
100
AcDbPoint
 10
351.4291382364425
 20
157.9680637105019
 30
0.0
  0
POINT
  5
CE7
330
C64
100
AcDbEntity
  8
Defpoints
 62
     0
100
AcDbPoint
 10
353.6338626458913
 20
155.487748749872
 30
0.0
  0
POINT
  5
CE8
330
C64
100
AcDbEntity
  8
Defpoints
 62
     0
100
AcDbPoint
 10
355.6398074982138
 20
155.487748749872
 30
0.0
  0
ENDBLK
  5
C70
330
C64
100
AcDbEntity
  8
0
100
AcDbBlockEnd
  0
BLOCK
  5
C77
330
C71
100
AcDbEntity
  8
0
100
AcDbBlockBegin
  2
*D73
 70
     1
 10
0.0
 20
0.0
 30
0.0
  3
*D73
  1

  0
LINE
  5
CE9
330
C71
100
AcDbEntity
  8
标注
370
    -2
100
AcDbLine
 10
323.4106983805717
 20
173.6227124596155
 30
0.0
 11
322.879498869084
 21
174.2964336630621
 31
0.0
  0
MTEXT
  5
CEA
330
C71
100
AcDbEntity
  8
标注
100
AcDbMText
 10
324.4065009275292
 20
172.3597344714526
 30
0.0
 40
0.65
 41
0.0
 71
     5
 72
     1
  1
\A1;R3/4"
 11
0.6191518426679309
 21
-0.7852712879769041
 31
0.0
 73
     1
 44
1.0
  0
SOLID
  5
CEB
330
C71
100
AcDbEntity
  8
标注
100
AcDbTrace
 10
322.9645699252817
 20
174.3635084460179
 30
0.0
 11
322.7944278128865
 21
174.2293588801065
 31
0.0
 12
322.4770501713499
 22
174.8068600002472
 32
0.0
 13
322.4770501713499
 23
174.8068600002472
 33
0.0
  0
POINT
  5
CEC
330
C71
100
AcDbEntity
  8
Defpoints
 62
     0
100
AcDbPoint
 10
322.4770501713499
 20
174.8068600002472
 30
0.0
  0
POINT
  5
CED
330
C71
100
AcDbEntity
  8
Defpoints
 62
     0
100
AcDbPoint
 10
322.9645713073088
 20
174.1885361514465
 30
0.0
  0
ENDBLK
  5
C78
330
C71
100
AcDbEntity
  8
0
100
AcDbBlockEnd
  0
BLOCK
  5
C84
330
C79
100
AcDbEntity
  8
0
100
AcDbBlockBegin
  2
*D74
 70
     1
 10
0.0
 20
0.0
 30
0.0
  3
*D74
  1

  0
LINE
  5
C7A
330
C79
100
AcDbEntity
  8
标注
370
    -2
100
AcDbLine
 10
354.5138626458915
 20
196.4394335706926
 30
0.0
 11
355.9350210247506
 21
196.4394335706926
 31
0.0
  0
LINE
  5
C7B
330
C79
100
AcDbEntity
  8
标注
370
    -2
100
AcDbLine
 10
352.3091382364427
 20
186.5969138856532
 30
0.0
 11
355.9350210247506
 21
186.5969138856532
 31
0.0
  0
LINE
  5
C7C
330
C79
100
AcDbEntity
  8
标注
370
    -2
100
AcDbLine
 10
355.6150210247506
 20
195.7894335706926
 30
0.0
 11
355.6150210247506
 21
193.4515070615063
 31
0.0
  0
LINE
  5
C7D
330
C79
100
AcDbEntity
  8
标注
370
    -2
100
AcDbLine
 10
355.6150210247506
 20
187.2469138856532
 30
0.0
 11
355.6150210247506
 21
189.5848403948397
 31
0.0
  0
SOLID
  5
C7E
330
C79
100
AcDbEntity
  8
标注
100
AcDbTrace
 10
355.5066876914172
 20
195.7894335706926
 30
0.0
 11
355.7233543580839
 21
195.7894335706926
 31
0.0
 12
355.6150210247506
 22
196.4394335706926
 32
0.0
 13
355.6150210247506
 23
196.4394335706926
 33
0.0
  0
SOLID
  5
C7F
330
C79
100
AcDbEntity
  8
标注
100
AcDbTrace
 10
355.5066876914172
 20
187.2469138856532
 30
0.0
 11
355.7233543580839
 21
187.2469138856532
 31
0.0
 12
355.6150210247506
 22
186.5969138856532
 32
0.0
 13
355.6150210247506
 23
186.5969138856532
 33
0.0
  0
MTEXT
  5
C80
330
C79
100
AcDbEntity
  8
标注
100
AcDbMText
 10
355.6150210247505
 20
191.518173728173
 30
0.0
 40
0.65
 41
0.0
 71
     5
 72
     1
  1
\A1;9 7/8"
 11
0.0000000000000001
 21
1.0
 31
0.0
 73
     1
 44
1.0
  0
POINT
  5
C81
330
C79
100
AcDbEntity
  8
Defpoints
 62
     0
100
AcDbPoint
 10
353.6338626458913
 20
196.4394335706926
 30
0.0
  0
POINT
  5
C82
330
C79
100
AcDbEntity
  8
Defpoints
 62
     0
100
AcDbPoint
 10
351.4291382364427
 20
186.5969138856532
 30
0.0
  0
POINT
  5
C83
330
C79
100
AcDbEntity
  8
Defpoints
 62
     0
100
AcDbPoint
 10
355.6150210247506
 20
186.5969138856532
 30
0.0
  0
ENDBLK
  5
C85
330
C79
100
AcDbEntity
  8
0
100
AcDbBlockEnd
  0
BLOCK
  5
C8F
330
C86
100
AcDbEntity
  8
0
100
AcDbBlockBegin
  2
*D75
 70
     1
 10
0.0
 20
0.0
 30
0.0
  3
*D75
  1

  0
LINE
  5
CEE
330
C86
100
AcDbEntity
  8
标注
370
    -2
100
AcDbLine
 10
334.2839508099853
 20
168.3716714469127
 30
0.0
 11
334.8925567883555
 21
168.5999229816109
 31
0.0
  0
LINE
  5
CEF
330
C86
100
AcDbEntity
  8
标注
370
    -2
100
AcDbLine
 10
339.5011527553959
 20
170.3283304236443
 30
0.0
 11
340.1097587337661
 21
170.5565819583426
 31
0.0
  0
MTEXT
  5
CF0
330
C86
100
AcDbEntity
  8
标注
100
AcDbMText
 10
332.1694351671864
 20
167.5786436789227
 30
0.0
 40
0.65
 41
0.0
 71
     5
 72
     1
  1
\A1;\U+22053 5/8"
 11
0.9363168898002529
 21
0.3511562072280387
 31
0.0
 73
     1
 44
1.0
  0
LINE
  5
CF1
330
C86
100
AcDbEntity
  8
标注
370
    -2
100
AcDbLine
 10
338.8925467770258
 20
170.1000788889461
 30
0.0
 11
335.5011627667257
 21
168.828174516309
 31
0.0
  0
SOLID
  5
CF2
330
C86
100
AcDbEntity
  8
标注
100
AcDbTrace
 10
339.4631108329462
 20
170.4297647533727
 30
0.0
 11
339.5391946778456
 21
170.226896093916
 31
0.0
 12
338.8925467770258
 22
170.1000788889461
 32
0.0
 13
338.8925467770258
 23
170.1000788889461
 33
0.0
  0
SOLID
  5
CF3
330
C86
100
AcDbEntity
  8
标注
100
AcDbTrace
 10
334.8545148659058
 20
168.7013573113393
 30
0.0
 11
334.9305987108052
 21
168.4984886518826
 31
0.0
 12
335.5011627667257
 22
168.828174516309
 32
0.0
 13
335.5011627667257
 23
168.828174516309
 33
0.0
  0
POINT
  5
CF4
330
C86
100
AcDbEntity
  8
Defpoints
 62
     0
100
AcDbPoint
 10
335.5011627667257
 20
168.828174516309
 30
0.0
  0
POINT
  5
CF5
330
C86
100
AcDbEntity
  8
Defpoints
 62
     0
100
AcDbPoint
 10
338.8925467770258
 20
170.1000788889461
 30
0.0
  0
ENDBLK
  5
C90
330
C86
100
AcDbEntity
  8
0
100
AcDbBlockEnd
  0
BLOCK
  5
CA6
330
C9B
100
AcDbEntity
  8
0
100
AcDbBlockBegin
  2
*D76
 70
     1
 10
0.0
 20
0.0
 30
0.0
  3
*D76
  1

  0
LINE
  5
C9C
330
C9B
100
AcDbEntity
  8
标注
370
    -2
100
AcDbLine
 10
354.5138626458915
 20
176.4720007183758
 30
0.0
 11
357.3577069276493
 21
176.4720007183758
 31
0.0
  0
LINE
  5
C9D
330
C9B
100
AcDbEntity
  8
标注
370
    -2
100
AcDbLine
 10
354.5138626458915
 20
155.487748749872
 30
0.0
 11
357.3577069276493
 21
155.487748749872
 31
0.0
  0
LINE
  5
C9E
330
C9B
100
AcDbEntity
  8
标注
370
    -2
100
AcDbLine
 10
357.0377069276493
 20
175.8220007183759
 30
0.0
 11
357.0377069276493
 21
166.829874734124
 31
0.0
  0
LINE
  5
C9F
330
C9B
100
AcDbEntity
  8
标注
370
    -2
100
AcDbLine
 10
357.0377069276493
 20
156.137748749872
 30
0.0
 11
357.0377069276493
 21
165.129874734124
 31
0.0
  0
SOLID
  5
CA0
330
C9B
100
AcDbEntity
  8
标注
100
AcDbTrace
 10
356.929373594316
 20
175.8220007183759
 30
0.0
 11
357.1460402609826
 21
175.8220007183759
 31
0.0
 12
357.0377069276493
 22
176.4720007183758
 32
0.0
 13
357.0377069276493
 23
176.4720007183758
 33
0.0
  0
SOLID
  5
CA1
330
C9B
100
AcDbEntity
  8
标注
100
AcDbTrace
 10
356.929373594316
 20
156.137748749872
 30
0.0
 11
357.1460402609826
 21
156.137748749872
 31
0.0
 12
357.0377069276493
 22
155.487748749872
 32
0.0
 13
357.0377069276493
 23
155.487748749872
 33
0.0
  0
MTEXT
  5
CA2
330
C9B
100
AcDbEntity
  8
标注
100
AcDbMText
 10
357.0377069276493
 20
165.979874734124
 30
0.0
 40
0.65
 41
0.0
 71
     5
 72
     1
  1
\A1;21"
 11
0.0000000000000001
 21
1.0
 31
0.0
 73
     1
 44
1.0
  0
POINT
  5
CA3
330
C9B
100
AcDbEntity
  8
Defpoints
 62
     0
100
AcDbPoint
 10
353.6338626458913
 20
176.4720007183758
 30
0.0
  0
POINT
  5
CA4
330
C9B
100
AcDbEntity
  8
Defpoints
 62
     0
100
AcDbPoint
 10
353.6338626458913
 20
155.487748749872
 30
0.0
  0
POINT
  5
CA5
330
C9B
100
AcDbEntity
  8
Defpoints
 62
     0
100
AcDbPoint
 10
357.0377069276493
 20
155.487748749872
 30
0.0
  0
ENDBLK
  5
CA7
330
C9B
100
AcDbEntity
  8
0
100
AcDbBlockEnd
  0
BLOCK
  5
CC7
330
CBC
100
AcDbEntity
  8
0
100
AcDbBlockBegin
  2
*D77
 70
     1
 10
0.0
 20
0.0
 30
0.0
  3
*D77
  1

  0
LINE
  5
CBD
330
CBC
100
AcDbEntity
  8
标注
370
    -2
100
AcDbLine
 10
320.7598468978599
 20
154.607748749872
 30
0.0
 11
320.7598468978599
 21
151.8235181197258
 31
0.0
  0
LINE
  5
CBE
330
CBC
100
AcDbEntity
  8
标注
370
    -2
100
AcDbLine
 10
353.6338626458913
 20
154.607748749872
 30
0.0
 11
353.6338626458913
 21
151.8235181197258
 31
0.0
  0
LINE
  5
CBF
330
CBC
100
AcDbEntity
  8
标注
370
    -2
100
AcDbLine
 10
321.4098468978599
 20
152.1435181197258
 30
0.0
 11
334.9385214385423
 21
152.1435181197258
 31
0.0
  0
LINE
  5
CC0
330
CBC
100
AcDbEntity
  8
标注
370
    -2
100
AcDbLine
 10
352.9838626458913
 20
152.1435181197258
 30
0.0
 11
339.4551881052089
 21
152.1435181197258
 31
0.0
  0
SOLID
  5
CC1
330
CBC
100
AcDbEntity
  8
标注
100
AcDbTrace
 10
321.4098468978599
 20
152.2518514530591
 30
0.0
 11
321.4098468978599
 21
152.0351847863925
 31
0.0
 12
320.7598468978599
 22
152.1435181197258
 32
0.0
 13
320.7598468978599
 23
152.1435181197258
 33
0.0
  0
SOLID
  5
CC2
330
CBC
100
AcDbEntity
  8
标注
100
AcDbTrace
 10
352.9838626458913
 20
152.2518514530591
 30
0.0
 11
352.9838626458913
 21
152.0351847863925
 31
0.0
 12
353.6338626458913
 22
152.1435181197258
 32
0.0
 13
353.6338626458913
 23
152.1435181197258
 33
0.0
  0
MTEXT
  5
CC3
330
CBC
100
AcDbEntity
  8
标注
100
AcDbMText
 10
337.1968547718756
 20
152.1435181197258
 30
0.0
 40
0.65
 41
0.0
 71
     5
 72
     1
  1
\A1;32 7/8"
 73
     1
 44
1.0
  0
POINT
  5
CC4
330
CBC
100
AcDbEntity
  8
Defpoints
 62
     0
100
AcDbPoint
 10
320.7598468978599
 20
155.487748749872
 30
0.0
  0
POINT
  5
CC5
330
CBC
100
AcDbEntity
  8
Defpoints
 62
     0
100
AcDbPoint
 10
353.6338626458913
 20
155.487748749872
 30
0.0
  0
POINT
  5
CC6
330
CBC
100
AcDbEntity
  8
Defpoints
 62
     0
100
AcDbPoint
 10
353.6338626458913
 20
152.1435181197258
 30
0.0
  0
ENDBLK
  5
CC8
330
CBC
100
AcDbEntity
  8
0
100
AcDbBlockEnd
  0
BLOCK
  5
DBB
330
DBA
100
AcDbEntity
  8
0
100
AcDbBlockBegin
  2
*D78
 70
     1
 10
0.0
 20
0.0
 30
0.0
  3
*D78
  1

  0
LINE
  5
DBC
330
DBA
100
AcDbEntity
  8
标注
370
    -2
100
AcDbLine
 10
348.9485091448019
 20
174.9450475949567
 30
0.0
 11
356.9491905234169
 21
174.9450475949567
 31
0.0
  0
LINE
  5
DBD
330
DBA
100
AcDbEntity
  8
标注
370
    -2
100
AcDbLine
 10
348.6139000237869
 20
158.4096145240906
 30
0.0
 11
356.9491905234169
 21
158.4096145240906
 31
0.0
  0
LINE
  5
DBE
330
DBA
100
AcDbEntity
  8
标注
370
    -2
100
AcDbLine
 10
356.6291905234169
 20
174.2950475949567
 30
0.0
 11
356.6291905234169
 21
168.7189977261903
 31
0.0
  0
LINE
  5
DBF
330
DBA
100
AcDbEntity
  8
标注
370
    -2
100
AcDbLine
 10
356.6291905234169
 20
159.0596145240906
 30
0.0
 11
356.6291905234169
 21
164.635664392857
 31
0.0
  0
SOLID
  5
DC0
330
DBA
100
AcDbEntity
  8
标注
100
AcDbTrace
 10
356.5208571900836
 20
174.2950475949567
 30
0.0
 11
356.7375238567503
 21
174.2950475949567
 31
0.0
 12
356.6291905234169
 22
174.9450475949567
 32
0.0
 13
356.6291905234169
 23
174.9450475949567
 33
0.0
  0
SOLID
  5
DC1
330
DBA
100
AcDbEntity
  8
标注
100
AcDbTrace
 10
356.5208571900836
 20
159.0596145240906
 30
0.0
 11
356.7375238567503
 21
159.0596145240906
 31
0.0
 12
356.6291905234169
 22
158.4096145240906
 32
0.0
 13
356.6291905234169
 23
158.4096145240906
 33
0.0
  0
MTEXT
  5
DC2
330
DBA
100
AcDbEntity
  8
标注
100
AcDbMText
 10
356.6291905234169
 20
166.6773310595237
 30
0.0
 40
0.65
 41
0.0
 71
     5
 72
     1
  1
\A1;16 1/2"
 11
0.0000000000000001
 21
1.0
 31
0.0
 73
     1
 44
1.0
  0
POINT
  5
DC3
330
DBA
100
AcDbEntity
  8
Defpoints
 62
     0
100
AcDbPoint
 10
348.0685091448019
 20
174.9450475949567
 30
0.0
  0
POINT
  5
DC4
330
DBA
100
AcDbEntity
  8
Defpoints
 62
     0
100
AcDbPoint
 10
347.7339000237869
 20
158.4096145240906
 30
0.0
  0
POINT
  5
DC5
330
DBA
100
AcDbEntity
  8
Defpoints
 62
     0
100
AcDbPoint
 10
356.6291905234169
 20
158.4096145240906
 30
0.0
  0
ENDBLK
  5
DC6
330
DBA
100
AcDbEntity
  8
0
100
AcDbBlockEnd
  0
BLOCK
  5
DC8
330
DC7
100
AcDbEntity
  8
0
100
AcDbBlockBegin
  2
*D79
 70
     1
 10
0.0
 20
0.0
 30
0.0
  3
*D79
  1

  0
LINE
  5
DC9
330
DC7
100
AcDbEntity
  8
标注
370
    -2
100
AcDbLine
 10
351.7611590273539
 20
175.945047594957
 30
0.0
 11
358.9176944604242
 21
175.945047594957
 31
0.0
  0
LINE
  5
DCA
330
DC7
100
AcDbEntity
  8
标注
370
    -2
100
AcDbLine
 10
351.7611590273539
 20
157.4096145240908
 30
0.0
 11
358.9176944604242
 21
157.4096145240908
 31
0.0
  0
LINE
  5
DCB
330
DC7
100
AcDbEntity
  8
标注
370
    -2
100
AcDbLine
 10
358.5976944604242
 20
175.295047594957
 30
0.0
 11
358.5976944604242
 21
168.7189977261906
 31
0.0
  0
LINE
  5
DCC
330
DC7
100
AcDbEntity
  8
标注
370
    -2
100
AcDbLine
 10
358.5976944604242
 20
158.0596145240908
 30
0.0
 11
358.5976944604242
 21
164.6356643928573
 31
0.0
  0
SOLID
  5
DCD
330
DC7
100
AcDbEntity
  8
标注
100
AcDbTrace
 10
358.4893611270909
 20
175.295047594957
 30
0.0
 11
358.7060277937577
 21
175.295047594957
 31
0.0
 12
358.5976944604242
 22
175.945047594957
 32
0.0
 13
358.5976944604242
 23
175.945047594957
 33
0.0
  0
SOLID
  5
DCE
330
DC7
100
AcDbEntity
  8
标注
100
AcDbTrace
 10
358.4893611270909
 20
158.0596145240908
 30
0.0
 11
358.7060277937577
 21
158.0596145240908
 31
0.0
 12
358.5976944604242
 22
157.4096145240908
 32
0.0
 13
358.5976944604242
 23
157.4096145240908
 33
0.0
  0
MTEXT
  5
DCF
330
DC7
100
AcDbEntity
  8
标注
100
AcDbMText
 10
358.5976944604242
 20
166.677331059524
 30
0.0
 40
0.65
 41
0.0
 71
     5
 72
     1
  1
\A1;18 1/2"
 11
0.0000000000000001
 21
1.0
 31
0.0
 73
     1
 44
1.0
  0
POINT
  5
DD0
330
DC7
100
AcDbEntity
  8
Defpoints
 62
     0
100
AcDbPoint
 10
350.8811590273539
 20
175.945047594957
 30
0.0
  0
POINT
  5
DD1
330
DC7
100
AcDbEntity
  8
Defpoints
 62
     0
100
AcDbPoint
 10
350.8811590273539
 20
157.4096145240908
 30
0.0
  0
POINT
  5
DD2
330
DC7
100
AcDbEntity
  8
Defpoints
 62
     0
100
AcDbPoint
 10
358.5976944604242
 20
157.4096145240908
 30
0.0
  0
ENDBLK
  5
DD3
330
DC7
100
AcDbEntity
  8
0
100
AcDbBlockEnd
  0
BLOCK
  5
DD5
330
DD4
100
AcDbEntity
  8
0
100
AcDbBlockBegin
  2
*D80
 70
     1
 10
0.0
 20
0.0
 30
0.0
  3
*D80
  1

  0
LINE
  5
DD6
330
DD4
100
AcDbEntity
  8
标注
370
    -2
100
AcDbLine
 10
339.8811590273541
 20
163.024877025115
 30
0.0
 11
339.8811590273541
 21
154.3337090122798
 31
0.0
  0
LINE
  5
DD7
330
DD4
100
AcDbEntity
  8
标注
370
    -2
100
AcDbLine
 10
352.8732850116061
 20
163.5569427131947
 30
0.0
 11
352.8732850116061
 21
154.3337090122798
 31
0.0
  0
LINE
  5
DD8
330
DD4
100
AcDbEntity
  8
标注
370
    -2
100
AcDbLine
 10
340.5311590273541
 20
154.6537090122798
 30
0.0
 11
345.52722201948
 21
154.6537090122798
 31
0.0
  0
LINE
  5
DD9
330
DD4
100
AcDbEntity
  8
标注
370
    -2
100
AcDbLine
 10
352.2232850116062
 20
154.6537090122798
 30
0.0
 11
347.2272220194801
 21
154.6537090122798
 31
0.0
  0
SOLID
  5
DDA
330
DD4
100
AcDbEntity
  8
标注
100
AcDbTrace
 10
340.5311590273541
 20
154.7620423456131
 30
0.0
 11
340.5311590273541
 21
154.5453756789465
 31
0.0
 12
339.8811590273541
 22
154.6537090122798
 32
0.0
 13
339.8811590273541
 23
154.6537090122798
 33
0.0
  0
SOLID
  5
DDB
330
DD4
100
AcDbEntity
  8
标注
100
AcDbTrace
 10
352.2232850116062
 20
154.7620423456131
 30
0.0
 11
352.2232850116062
 21
154.5453756789465
 31
0.0
 12
352.8732850116061
 22
154.6537090122798
 32
0.0
 13
352.8732850116061
 23
154.6537090122798
 33
0.0
  0
MTEXT
  5
DDC
330
DD4
100
AcDbEntity
  8
标注
100
AcDbMText
 10
346.3772220194802
 20
154.6537090122798
 30
0.0
 40
0.65
 41
0.0
 71
     5
 72
     1
  1
\A1;13"
 73
     1
 44
1.0
  0
POINT
  5
DDD
330
DD4
100
AcDbEntity
  8
Defpoints
 62
     0
100
AcDbPoint
 10
339.8811590273541
 20
163.9048770251149
 30
0.0
  0
POINT
  5
DDE
330
DD4
100
AcDbEntity
  8
Defpoints
 62
     0
100
AcDbPoint
 10
352.8732850116061
 20
164.4369427131947
 30
0.0
  0
POINT
  5
DDF
330
DD4
100
AcDbEntity
  8
Defpoints
 62
     0
100
AcDbPoint
 10
352.8732850116061
 20
154.6537090122798
 30
0.0
  0
ENDBLK
  5
DE0
330
DD4
100
AcDbEntity
  8
0
100
AcDbBlockEnd
  0
BLOCK
  5
DE2
330
DE1
100
AcDbEntity
  8
0
100
AcDbBlockBegin
  2
*D81
 70
     1
 10
0.0
 20
0.0
 30
0.0
  3
*D81
  1

  0
LINE
  5
DE3
330
DE1
100
AcDbEntity
  8
标注
370
    -2
100
AcDbLine
 10
322.8654109958581
 20
162.7385301872091
 30
0.0
 11
322.8654109958581
 21
154.3337090122798
 31
0.0
  0
LINE
  5
DE4
330
DE1
100
AcDbEntity
  8
标注
370
    -2
100
AcDbLine
 10
338.6134424919212
 20
162.9530342568923
 30
0.0
 11
338.6134424919212
 21
154.3337090122798
 31
0.0
  0
LINE
  5
DE5
330
DE1
100
AcDbEntity
  8
标注
370
    -2
100
AcDbLine
 10
323.5154109958581
 20
154.6537090122798
 30
0.0
 11
328.5894267438897
 21
154.6537090122798
 31
0.0
  0
LINE
  5
DE6
330
DE1
100
AcDbEntity
  8
标注
370
    -2
100
AcDbLine
 10
337.9634424919212
 20
154.6537090122798
 30
0.0
 11
332.8894267438897
 21
154.6537090122798
 31
0.0
  0
SOLID
  5
DE7
330
DE1
100
AcDbEntity
  8
标注
100
AcDbTrace
 10
323.5154109958581
 20
154.7620423456131
 30
0.0
 11
323.5154109958581
 21
154.5453756789465
 31
0.0
 12
322.8654109958581
 22
154.6537090122798
 32
0.0
 13
322.8654109958581
 23
154.6537090122798
 33
0.0
  0
SOLID
  5
DE8
330
DE1
100
AcDbEntity
  8
标注
100
AcDbTrace
 10
337.9634424919212
 20
154.7620423456131
 30
0.0
 11
337.9634424919212
 21
154.5453756789465
 31
0.0
 12
338.6134424919212
 22
154.6537090122798
 32
0.0
 13
338.6134424919212
 23
154.6537090122798
 33
0.0
  0
MTEXT
  5
DE9
330
DE1
100
AcDbEntity
  8
标注
100
AcDbMText
 10
330.7394267438897
 20
154.6537090122798
 30
0.0
 40
0.65
 41
0.0
 71
     5
 72
     1
  1
\A1;15 3/4"
 73
     1
 44
1.0
  0
POINT
  5
DEA
330
DE1
100
AcDbEntity
  8
Defpoints
 62
     0
100
AcDbPoint
 10
322.8654109958581
 20
163.6185301872091
 30
0.0
  0
POINT
  5
DEB
330
DE1
100
AcDbEntity
  8
Defpoints
 62
     0
100
AcDbPoint
 10
338.6134424919212
 20
163.8330342568923
 30
0.0
  0
POINT
  5
DEC
330
DE1
100
AcDbEntity
  8
Defpoints
 62
     0
100
AcDbPoint
 10
338.6134424919212
 20
154.6537090122798
 30
0.0
  0
ENDBLK
  5
DED
330
DE1
100
AcDbEntity
  8
0
100
AcDbBlockEnd
  0
BLOCK
  5
DEF
330
DEE
100
AcDbEntity
  8
0
100
AcDbBlockBegin
  2
*D82
 70
     1
 10
0.0
 20
0.0
 30
0.0
  3
*D82
  1

  0
LINE
  5
DF0
330
DEE
100
AcDbEntity
  8
标注
370
    -2
100
AcDbLine
 10
321.8654109958578
 20
159.7973310595239
 30
0.0
 11
321.8654109958578
 21
152.3652050752719
 31
0.0
  0
LINE
  5
DF1
330
DEE
100
AcDbEntity
  8
标注
370
    -2
100
AcDbLine
 10
353.8732850116064
 20
159.912707214399
 30
0.0
 11
353.8732850116064
 21
152.3652050752719
 31
0.0
  0
LINE
  5
DF2
330
DEE
100
AcDbEntity
  8
标注
370
    -2
100
AcDbLine
 10
322.5154109958578
 20
152.6852050752719
 30
0.0
 11
336.9110146703988
 21
152.6852050752719
 31
0.0
  0
LINE
  5
DF3
330
DEE
100
AcDbEntity
  8
标注
370
    -2
100
AcDbLine
 10
353.2232850116064
 20
152.6852050752719
 30
0.0
 11
338.8276813370654
 21
152.6852050752719
 31
0.0
  0
SOLID
  5
DF4
330
DEE
100
AcDbEntity
  8
标注
100
AcDbTrace
 10
322.5154109958578
 20
152.7935384086052
 30
0.0
 11
322.5154109958578
 21
152.5768717419386
 31
0.0
 12
321.8654109958578
 22
152.6852050752719
 32
0.0
 13
321.8654109958578
 23
152.6852050752719
 33
0.0
  0
SOLID
  5
DF5
330
DEE
100
AcDbEntity
  8
标注
100
AcDbTrace
 10
353.2232850116064
 20
152.7935384086052
 30
0.0
 11
353.2232850116064
 21
152.5768717419386
 31
0.0
 12
353.8732850116064
 22
152.6852050752719
 32
0.0
 13
353.8732850116064
 23
152.6852050752719
 33
0.0
  0
MTEXT
  5
DF6
330
DEE
100
AcDbEntity
  8
标注
100
AcDbMText
 10
337.8693480037321
 20
152.6852050752719
 30
0.0
 40
0.65
 41
0.0
 71
     5
 72
     1
  1
\A1;32"
 73
     1
 44
1.0
  0
POINT
  5
DF7
330
DEE
100
AcDbEntity
  8
Defpoints
 62
     0
100
AcDbPoint
 10
321.8654109958578
 20
160.6773310595239
 30
0.0
  0
POINT
  5
DF8
330
DEE
100
AcDbEntity
  8
Defpoints
 62
     0
100
AcDbPoint
 10
353.8732850116064
 20
160.7927072143989
 30
0.0
  0
POINT
  5
DF9
330
DEE
100
AcDbEntity
  8
Defpoints
 62
     0
100
AcDbPoint
 10
353.8732850116064
 20
152.6852050752719
 30
0.0
  0
ENDBLK
  5
DFA
330
DEE
100
AcDbEntity
  8
0
100
AcDbBlockEnd
  0
BLOCK
  5
DFC
330
DFB
100
AcDbEntity
  8
0
100
AcDbBlockBegin
  2
*D83
 70
     1
 10
0.0
 20
0.0
 30
0.0
  3
*D83
  1

  0
LINE
  5
DFD
330
DFB
100
AcDbEntity
  8
标注
370
    -2
100
AcDbLine
 10
327.3218184897678
 20
177.1497720044055
 30
0.0
 11
318.7895054840469
 21
177.1497720044056
 31
0.0
  0
LINE
  5
DFE
330
DFB
100
AcDbEntity
  8
标注
370
    -2
100
AcDbLine
 10
326.9392185618625
 20
158.4096145240906
 30
0.0
 11
318.7895054840469
 21
158.4096145240906
 31
0.0
  0
LINE
  5
DFF
330
DFB
100
AcDbEntity
  8
标注
370
    -2
100
AcDbLine
 10
319.1095054840468
 20
176.4997720044055
 30
0.0
 11
319.1095054840468
 21
169.929693264248
 31
0.0
  0
LINE
  5
E00
330
DFB
100
AcDbEntity
  8
标注
370
    -2
100
AcDbLine
 10
319.1095054840468
 20
159.0596145240906
 30
0.0
 11
319.1095054840468
 21
165.6296932642481
 31
0.0
  0
SOLID
  5
E01
330
DFB
100
AcDbEntity
  8
标注
100
AcDbTrace
 10
319.0011721507135
 20
176.4997720044055
 30
0.0
 11
319.2178388173802
 21
176.4997720044055
 31
0.0
 12
319.1095054840468
 22
177.1497720044056
 32
0.0
 13
319.1095054840468
 23
177.1497720044056
 33
0.0
  0
SOLID
  5
E02
330
DFB
100
AcDbEntity
  8
标注
100
AcDbTrace
 10
319.0011721507135
 20
159.0596145240906
 30
0.0
 11
319.2178388173802
 21
159.0596145240906
 31
0.0
 12
319.1095054840468
 22
158.4096145240906
 32
0.0
 13
319.1095054840468
 23
158.4096145240906
 33
0.0
  0
MTEXT
  5
E03
330
DFB
100
AcDbEntity
  8
标注
100
AcDbMText
 10
319.1095054840468
 20
167.7796932642481
 30
0.0
 40
0.65
 41
0.0
 71
     5
 72
     1
  1
\A1;18 3/4"
 11
0.0000000000000001
 21
1.0
 31
0.0
 73
     1
 44
1.0
  0
POINT
  5
E04
330
DFB
100
AcDbEntity
  8
Defpoints
 62
     0
100
AcDbPoint
 10
328.2018184897678
 20
177.1497720044055
 30
0.0
  0
POINT
  5
E05
330
DFB
100
AcDbEntity
  8
Defpoints
 62
     0
100
AcDbPoint
 10
327.8192185618625
 20
158.4096145240906
 30
0.0
  0
POINT
  5
E06
330
DFB
100
AcDbEntity
  8
Defpoints
 62
     0
100
AcDbPoint
 10
319.1095054840468
 20
158.4096145240906
 30
0.0
  0
ENDBLK
  5
E07
330
DFB
100
AcDbEntity
  8
0
100
AcDbBlockEnd
  0
BLOCK
  5
E09
330
E08
100
AcDbEntity
  8
0
100
AcDbBlockBegin
  2
*D84
 70
     1
 10
0.0
 20
0.0
 30
0.0
  3
*D84
  1

  0
LINE
  5
E0A
330
E08
100
AcDbEntity
  8
标注
370
    -2
100
AcDbLine
 10
324.2531275312909
 20
178.1497720044059
 30
0.0
 11
316.821001547039
 21
178.1497720044059
 31
0.0
  0
LINE
  5
E0B
330
E08
100
AcDbEntity
  8
标注
370
    -2
100
AcDbLine
 10
324.2531275312909
 20
157.4096145240908
 30
0.0
 11
316.821001547039
 21
157.4096145240908
 31
0.0
  0
LINE
  5
E0C
330
E08
100
AcDbEntity
  8
标注
370
    -2
100
AcDbLine
 10
317.141001547039
 20
177.4997720044059
 30
0.0
 11
317.141001547039
 21
169.983859930915
 31
0.0
  0
LINE
  5
E0D
330
E08
100
AcDbEntity
  8
标注
370
    -2
100
AcDbLine
 10
317.141001547039
 20
158.0596145240908
 30
0.0
 11
317.141001547039
 21
165.5755265975817
 31
0.0
  0
SOLID
  5
E0E
330
E08
100
AcDbEntity
  8
标注
100
AcDbTrace
 10
317.0326682137056
 20
177.4997720044059
 30
0.0
 11
317.2493348803723
 21
177.4997720044059
 31
0.0
 12
317.141001547039
 22
178.1497720044059
 32
0.0
 13
317.141001547039
 23
178.1497720044059
 33
0.0
  0
SOLID
  5
E0F
330
E08
100
AcDbEntity
  8
标注
100
AcDbTrace
 10
317.0326682137056
 20
158.0596145240908
 30
0.0
 11
317.2493348803723
 21
158.0596145240908
 31
0.0
 12
317.141001547039
 22
157.4096145240908
 32
0.0
 13
317.141001547039
 23
157.4096145240908
 33
0.0
  0
MTEXT
  5
E10
330
E08
100
AcDbEntity
  8
标注
100
AcDbMText
 10
317.1410015470389
 20
167.7796932642484
 30
0.0
 40
0.65
 41
0.0
 71
     5
 72
     1
  1
\A1;20 3/4"
 11
0.0000000000000001
 21
1.0
 31
0.0
 73
     1
 44
1.0
  0
POINT
  5
E11
330
E08
100
AcDbEntity
  8
Defpoints
 62
     0
100
AcDbPoint
 10
325.1331275312909
 20
178.1497720044059
 30
0.0
  0
POINT
  5
E12
330
E08
100
AcDbEntity
  8
Defpoints
 62
     0
100
AcDbPoint
 10
325.1331275312909
 20
157.4096145240908
 30
0.0
  0
POINT
  5
E13
330
E08
100
AcDbEntity
  8
Defpoints
 62
     0
100
AcDbPoint
 10
317.141001547039
 20
157.4096145240908
 30
0.0
  0
ENDBLK
  5
E14
330
E08
100
AcDbEntity
  8
0
100
AcDbBlockEnd
  0
BLOCK
  5
E16
330
E15
100
AcDbEntity
  8
0
100
AcDbBlockBegin
  2
*D85
 70
     1
 10
0.0
 20
0.0
 30
0.0
  3
*D85
  1

  0
LINE
  5
E17
330
E15
100
AcDbEntity
  8
标注
370
    -2
100
AcDbLine
 10
342.6032023983162
 20
160.7476844048397
 30
0.0
 11
341.868210301603
 21
159.8040990621696
 31
0.0
  0
MTEXT
  5
E18
330
E15
100
AcDbEntity
  8
标注
100
AcDbMText
 10
343.9243978690708
 20
162.4438396241688
 30
0.0
 40
0.65
 41
0.0
 71
     5
 72
     1
  1
\A1;R3 1/2"
 11
0.6145095212812234
 21
0.7889094043391305
 31
0.0
 73
     1
 44
1.0
  0
SOLID
  5
E19
330
E15
100
AcDbEntity
  8
标注
100
AcDbTrace
 10
341.7827451161329
 20
159.8706709269752
 30
0.0
 11
341.953675487073
 21
159.7375271973642
 31
0.0
 12
341.4687791127702
 22
159.2913079493493
 32
0.0
 13
341.4687791127702
 23
159.2913079493493
 33
0.0
  0
POINT
  5
E1A
330
E15
100
AcDbEntity
  8
Defpoints
 62
     0
100
AcDbPoint
 10
341.4687791127702
 20
159.2913079493493
 30
0.0
  0
POINT
  5
E1B
330
E15
100
AcDbEntity
  8
Defpoints
 62
     0
100
AcDbPoint
 10
343.6461750543172
 20
162.08665623244
 30
0.0
  0
ENDBLK
  5
E1C
330
E15
100
AcDbEntity
  8
0
100
AcDbBlockEnd
  0
BLOCK
  5
E1E
330
E1D
100
AcDbEntity
  8
0
100
AcDbBlockBegin
  2
*D86
 70
     1
 10
0.0
 20
0.0
 30
0.0
  3
*D86
  1

  0
LINE
  5
E1F
330
E1D
100
AcDbEntity
  8
标注
370
    -2
100
AcDbLine
 10
352.8732850116061
 20
159.5688621080425
 30
0.0
 11
352.8732850116061
 21
154.3337090122798
 31
0.0
  0
LINE
  5
E20
330
E1D
100
AcDbEntity
  8
标注
370
    -2
100
AcDbLine
 10
353.8732850116064
 20
159.1253056395958
 30
0.0
 11
353.8732850116064
 21
154.3337090122798
 31
0.0
  0
LINE
  5
E21
330
E1D
100
AcDbEntity
  8
标注
370
    -2
100
AcDbLine
 10
352.2232850116062
 20
154.6537090122798
 30
0.0
 11
351.573285011606
 21
154.6537090122798
 31
0.0
  0
LINE
  5
E22
330
E1D
100
AcDbEntity
  8
标注
370
    -2
100
AcDbLine
 10
354.5232850116064
 20
154.6537090122798
 30
0.0
 11
355.1732850116064
 21
154.6537090122798
 31
0.0
  0
LINE
  5
E23
330
E1D
100
AcDbEntity
  8
标注
370
    -2
100
AcDbLine
 10
352.8732850116061
 20
154.6537090122798
 30
0.0
 11
353.8732850116064
 21
154.6537090122798
 31
0.0
  0
SOLID
  5
E24
330
E1D
100
AcDbEntity
  8
标注
100
AcDbTrace
 10
352.2232850116062
 20
154.7620423456131
 30
0.0
 11
352.2232850116062
 21
154.5453756789465
 31
0.0
 12
352.8732850116061
 22
154.6537090122798
 32
0.0
 13
352.8732850116061
 23
154.6537090122798
 33
0.0
  0
SOLID
  5
E25
330
E1D
100
AcDbEntity
  8
标注
100
AcDbTrace
 10
354.5232850116064
 20
154.7620423456131
 30
0.0
 11
354.5232850116064
 21
154.5453756789465
 31
0.0
 12
353.8732850116064
 22
154.6537090122798
 32
0.0
 13
353.8732850116064
 23
154.6537090122798
 33
0.0
  0
MTEXT
  5
E26
330
E1D
100
AcDbEntity
  8
标注
100
AcDbMText
 10
355.6982850116063
 20
154.6537090122798
 30
0.0
 40
0.65
 41
0.0
 71
     5
 72
     1
  1
\A1;1"
 73
     1
 44
1.0
  0
POINT
  5
E27
330
E1D
100
AcDbEntity
  8
Defpoints
 62
     0
100
AcDbPoint
 10
352.8732850116061
 20
160.4488621080425
 30
0.0
  0
POINT
  5
E28
330
E1D
100
AcDbEntity
  8
Defpoints
 62
     0
100
AcDbPoint
 10
353.8732850116064
 20
160.0053056395958
 30
0.0
  0
POINT
  5
E29
330
E1D
100
AcDbEntity
  8
Defpoints
 62
     0
100
AcDbPoint
 10
353.8732850116064
 20
154.6537090122798
 30
0.0
  0
ENDBLK
  5
E2A
330
E1D
100
AcDbEntity
  8
0
100
AcDbBlockEnd
  0
BLOCK
  5
E2C
330
E2B
100
AcDbEntity
  8
0
100
AcDbBlockBegin
  2
*D87
 70
     1
 10
0.0
 20
0.0
 30
0.0
  3
*D87
  1

  0
LINE
  5
E2D
330
E2B
100
AcDbEntity
  8
标注
370
    -2
100
AcDbLine
 10
338.6134424919212
 20
166.899693264248
 30
0.0
 11
338.6134424919212
 21
167.0866120830936
 31
0.0
  0
LINE
  5
E2E
330
E2B
100
AcDbEntity
  8
标注
370
    -2
100
AcDbLine
 10
339.8811590273541
 20
167.5573310595236
 30
0.0
 11
339.8811590273541
 21
167.7266120830936
 31
0.0
  0
LINE
  5
E2F
330
E2B
100
AcDbEntity
  8
标注
370
    -2
100
AcDbLine
 10
340.5311590273541
 20
167.4066120830937
 30
0.0
 11
341.1811590273541
 21
167.4066120830937
 31
0.0
  0
LINE
  5
E30
330
E2B
100
AcDbEntity
  8
标注
370
    -2
100
AcDbLine
 10
337.9634424919212
 20
167.4066120830937
 30
0.0
 11
337.2362771375907
 21
167.4066120830937
 31
0.0
  0
LINE
  5
E31
330
E2B
100
AcDbEntity
  8
标注
370
    -2
100
AcDbLine
 10
339.8811590273541
 20
167.4066120830937
 30
0.0
 11
338.6134424919212
 21
167.4066120830937
 31
0.0
  0
SOLID
  5
E32
330
E2B
100
AcDbEntity
  8
标注
100
AcDbTrace
 10
340.5311590273541
 20
167.514945416427
 30
0.0
 11
340.5311590273541
 21
167.2982787497604
 31
0.0
 12
339.8811590273541
 22
167.4066120830937
 32
0.0
 13
339.8811590273541
 23
167.4066120830937
 33
0.0
  0
SOLID
  5
E33
330
E2B
100
AcDbEntity
  8
标注
100
AcDbTrace
 10
337.9634424919212
 20
167.514945416427
 30
0.0
 11
337.9634424919212
 21
167.2982787497604
 31
0.0
 12
338.6134424919212
 22
167.4066120830937
 32
0.0
 13
338.6134424919212
 23
167.4066120830937
 33
0.0
  0
MTEXT
  5
E34
330
E2B
100
AcDbEntity
  8
标注
100
AcDbMText
 10
335.519610470924
 20
167.4066120830937
 30
0.0
 40
0.65
 41
0.0
 71
     5
 72
     1
  1
\A1;1 1/2"
 73
     1
 44
1.0
  0
POINT
  5
E35
330
E2B
100
AcDbEntity
  8
Defpoints
 62
     0
100
AcDbPoint
 10
338.6134424919212
 20
167.779693264248
 30
0.0
  0
POINT
  5
E36
330
E2B
100
AcDbEntity
  8
Defpoints
 62
     0
100
AcDbPoint
 10
339.8811590273541
 20
166.6773310595236
 30
0.0
  0
POINT
  5
E37
330
E2B
100
AcDbEntity
  8
Defpoints
 62
     0
100
AcDbPoint
 10
339.8811590273541
 20
167.4066120830937
 30
0.0
  0
ENDBLK
  5
E38
330
E2B
100
AcDbEntity
  8
0
100
AcDbBlockEnd
  0
BLOCK
  5
E3A
330
E39
100
AcDbEntity
  8
0
100
AcDbBlockBegin
  2
*D88
 70
     1
 10
0.0
 20
0.0
 30
0.0
  3
*D88
  1

  0
LINE
  5
E3B
330
E39
100
AcDbEntity
  8
标注
370
    -2
100
AcDbLine
 10
324.7248562093318
 20
158.4096145240906
 30
0.0
 11
318.7895054840469
 21
158.4096145240906
 31
0.0
  0
LINE
  5
E3C
330
E39
100
AcDbEntity
  8
标注
370
    -2
100
AcDbLine
 10
324.2531275312909
 20
157.4096145240908
 30
0.0
 11
318.7895054840469
 21
157.4096145240908
 31
0.0
  0
LINE
  5
E3D
330
E39
100
AcDbEntity
  8
标注
370
    -2
100
AcDbLine
 10
319.1095054840468
 20
159.0596145240906
 30
0.0
 11
319.1095054840468
 21
159.7096145240906
 31
0.0
  0
LINE
  5
E3E
330
E39
100
AcDbEntity
  8
标注
370
    -2
100
AcDbLine
 10
319.1095054840468
 20
156.7596145240908
 30
0.0
 11
319.1095054840468
 21
156.1096145240908
 31
0.0
  0
LINE
  5
E3F
330
E39
100
AcDbEntity
  8
标注
370
    -2
100
AcDbLine
 10
319.1095054840468
 20
158.4096145240906
 30
0.0
 11
319.1095054840468
 21
157.4096145240908
 31
0.0
  0
SOLID
  5
E40
330
E39
100
AcDbEntity
  8
标注
100
AcDbTrace
 10
319.0011721507135
 20
159.0596145240906
 30
0.0
 11
319.2178388173802
 21
159.0596145240906
 31
0.0
 12
319.1095054840468
 22
158.4096145240906
 32
0.0
 13
319.1095054840468
 23
158.4096145240906
 33
0.0
  0
SOLID
  5
E41
330
E39
100
AcDbEntity
  8
标注
100
AcDbTrace
 10
319.0011721507135
 20
156.7596145240908
 30
0.0
 11
319.2178388173802
 21
156.7596145240908
 31
0.0
 12
319.1095054840468
 22
157.4096145240908
 32
0.0
 13
319.1095054840468
 23
157.4096145240908
 33
0.0
  0
MTEXT
  5
E42
330
E39
100
AcDbEntity
  8
标注
100
AcDbMText
 10
319.1095054840468
 20
155.5846145240909
 30
0.0
 40
0.65
 41
0.0
 71
     5
 72
     1
  1
\A1;1"
 11
0.0000000000000001
 21
1.0
 31
0.0
 73
     1
 44
1.0
  0
POINT
  5
E43
330
E39
100
AcDbEntity
  8
Defpoints
 62
     0
100
AcDbPoint
 10
325.6048562093318
 20
158.4096145240906
 30
0.0
  0
POINT
  5
E44
330
E39
100
AcDbEntity
  8
Defpoints
 62
     0
100
AcDbPoint
 10
325.1331275312909
 20
157.4096145240908
 30
0.0
  0
POINT
  5
E45
330
E39
100
AcDbEntity
  8
Defpoints
 62
     0
100
AcDbPoint
 10
319.1095054840468
 20
157.4096145240908
 30
0.0
  0
ENDBLK
  5
E46
330
E39
100
AcDbEntity
  8
0
100
AcDbBlockEnd
  0
BLOCK
  5
E48
330
E47
100
AcDbEntity
  8
0
100
AcDbBlockBegin
  2
*D89
 70
     1
 10
0.0
 20
0.0
 30
0.0
  3
*D89
  1

  0
LINE
  5
E49
330
E47
100
AcDbEntity
  8
标注
370
    -2
100
AcDbLine
 10
351.1876562606685
 20
174.9450475949567
 30
0.0
 11
356.9491905234169
 21
174.9450475949567
 31
0.0
  0
LINE
  5
E4A
330
E47
100
AcDbEntity
  8
标注
370
    -2
100
AcDbLine
 10
352.5485606021571
 20
175.945047594957
 30
0.0
 11
356.9491905234169
 21
175.945047594957
 31
0.0
  0
LINE
  5
E4B
330
E47
100
AcDbEntity
  8
标注
370
    -2
100
AcDbLine
 10
356.6291905234169
 20
174.2950475949567
 30
0.0
 11
356.6291905234169
 21
173.6450475949567
 31
0.0
  0
LINE
  5
E4C
330
E47
100
AcDbEntity
  8
标注
370
    -2
100
AcDbLine
 10
356.6291905234169
 20
176.595047594957
 30
0.0
 11
356.6291905234169
 21
177.245047594957
 31
0.0
  0
LINE
  5
E4D
330
E47
100
AcDbEntity
  8
标注
370
    -2
100
AcDbLine
 10
356.6291905234169
 20
174.9450475949567
 30
0.0
 11
356.6291905234169
 21
175.945047594957
 31
0.0
  0
SOLID
  5
E4E
330
E47
100
AcDbEntity
  8
标注
100
AcDbTrace
 10
356.5208571900836
 20
174.2950475949567
 30
0.0
 11
356.7375238567503
 21
174.2950475949567
 31
0.0
 12
356.6291905234169
 22
174.9450475949567
 32
0.0
 13
356.6291905234169
 23
174.9450475949567
 33
0.0
  0
SOLID
  5
E4F
330
E47
100
AcDbEntity
  8
标注
100
AcDbTrace
 10
356.5208571900836
 20
176.595047594957
 30
0.0
 11
356.7375238567503
 21
176.595047594957
 31
0.0
 12
356.6291905234169
 22
175.945047594957
 32
0.0
 13
356.6291905234169
 23
175.945047594957
 33
0.0
  0
MTEXT
  5
E50
330
E47
100
AcDbEntity
  8
标注
100
AcDbMText
 10
356.6291905234169
 20
177.770047594957
 30
0.0
 40
0.65
 41
0.0
 71
     5
 72
     1
  1
\A1;1"
 11
0.0000000000000001
 21
1.0
 31
0.0
 73
     1
 44
1.0
  0
POINT
  5
E51
330
E47
100
AcDbEntity
  8
Defpoints
 62
     0
100
AcDbPoint
 10
350.3076562606685
 20
174.9450475949567
 30
0.0
  0
POINT
  5
E52
330
E47
100
AcDbEntity
  8
Defpoints
 62
     0
100
AcDbPoint
 10
351.6685606021571
 20
175.945047594957
 30
0.0
  0
POINT
  5
E53
330
E47
100
AcDbEntity
  8
Defpoints
 62
     0
100
AcDbPoint
 10
356.6291905234169
 20
175.945047594957
 30
0.0
  0
ENDBLK
  5
E54
330
E47
100
AcDbEntity
  8
0
100
AcDbBlockEnd
  0
BLOCK
  5
E56
330
E55
100
AcDbEntity
  8
0
100
AcDbBlockBegin
  2
*D90
 70
     1
 10
0.0
 20
0.0
 30
0.0
  3
*D90
  1

  0
LINE
  5
E57
330
E55
100
AcDbEntity
  8
标注
370
    -2
100
AcDbLine
 10
336.2842632601933
 20
161.683819795944
 30
0.0
 11
337.4694856953738
 21
161.1553484865526
 31
0.0
  0
MTEXT
  5
E58
330
E55
100
AcDbEntity
  8
标注
100
AcDbMText
 10
334.2216753777222
 20
162.6034940162674
 30
0.0
 40
0.65
 41
0.0
 71
     5
 72
     1
  1
\A1;R3 7/8"
 11
0.9133230475887179
 21
-0.4072358171173754
 31
0.0
 73
     1
 44
1.0
  0
SOLID
  5
E59
330
E55
100
AcDbEntity
  8
标注
100
AcDbTrace
 10
337.5136029088949
 20
161.254291816708
 30
0.0
 11
337.4253684818528
 21
161.0564051563971
 31
0.0
 12
338.0631456763065
 22
160.8906452054263
 32
0.0
 13
338.0631456763065
 23
160.8906452054263
 33
0.0
  0
POINT
  5
E5A
330
E55
100
AcDbEntity
  8
Defpoints
 62
     0
100
AcDbPoint
 10
338.0631456763065
 20
160.8906452054263
 30
0.0
  0
POINT
  5
E5B
330
E55
100
AcDbEntity
  8
Defpoints
 62
     0
100
AcDbPoint
 10
334.4673856464297
 20
162.4939358239986
 30
0.0
  0
ENDBLK
  5
E5C
330
E55
100
AcDbEntity
  8
0
100
AcDbBlockEnd
  0
BLOCK
  5
E5E
330
E5D
100
AcDbEntity
  8
0
100
AcDbBlockBegin
  2
*D91
 70
     1
 10
0.0
 20
0.0
 30
0.0
  3
*D91
  1

  0
LINE
  5
E5F
330
E5D
100
AcDbEntity
  8
标注
370
    -2
100
AcDbLine
 10
334.9422206323307
 20
178.1497720044059
 30
0.0
 11
334.0081351588914
 21
178.1497720044059
 31
0.0
  0
LINE
  5
E60
330
E5D
100
AcDbEntity
  8
标注
370
    -2
100
AcDbLine
 10
334.3860186135856
 20
171.6379609807835
 30
0.0
 11
334.0081351588914
 21
171.6379609807835
 31
0.0
  0
LINE
  5
E61
330
E5D
100
AcDbEntity
  8
标注
370
    -2
100
AcDbLine
 10
334.3281351588914
 20
177.4997720044059
 30
0.0
 11
334.3281351588914
 21
176.2631433122041
 31
0.0
  0
LINE
  5
E62
330
E5D
100
AcDbEntity
  8
标注
370
    -2
100
AcDbLine
 10
334.3281351588914
 20
172.2879609807835
 30
0.0
 11
334.3281351588914
 21
172.6131433122041
 31
0.0
  0
SOLID
  5
E63
330
E5D
100
AcDbEntity
  8
标注
100
AcDbTrace
 10
334.219801825558
 20
177.4997720044059
 30
0.0
 11
334.4364684922247
 21
177.4997720044059
 31
0.0
 12
334.3281351588914
 22
178.1497720044059
 32
0.0
 13
334.3281351588914
 23
178.1497720044059
 33
0.0
  0
SOLID
  5
E64
330
E5D
100
AcDbEntity
  8
标注
100
AcDbTrace
 10
334.219801825558
 20
172.2879609807835
 30
0.0
 11
334.4364684922247
 21
172.2879609807835
 31
0.0
 12
334.3281351588914
 22
171.6379609807835
 32
0.0
 13
334.3281351588914
 23
171.6379609807835
 33
0.0
  0
MTEXT
  5
E65
330
E5D
100
AcDbEntity
  8
标注
100
AcDbMText
 10
334.3281351588913
 20
174.4381433122043
 30
0.0
 40
0.65
 41
0.0
 71
     5
 72
     1
  1
\A1;6 1/2"
 11
0.0000000000000001
 21
1.0
 31
0.0
 73
     1
 44
1.0
  0
POINT
  5
E66
330
E5D
100
AcDbEntity
  8
Defpoints
 62
     0
100
AcDbPoint
 10
335.8222206323308
 20
178.1497720044059
 30
0.0
  0
POINT
  5
E67
330
E5D
100
AcDbEntity
  8
Defpoints
 62
     0
100
AcDbPoint
 10
335.2660186135856
 20
171.6379609807835
 30
0.0
  0
POINT
  5
E68
330
E5D
100
AcDbEntity
  8
Defpoints
 62
     0
100
AcDbPoint
 10
334.3281351588914
 20
171.6379609807835
 30
0.0
  0
ENDBLK
  5
E69
330
E5D
100
AcDbEntity
  8
0
100
AcDbBlockEnd
  0
BLOCK
  5
E6B
330
E6A
100
AcDbEntity
  8
0
100
AcDbBlockBegin
  2
*D92
 70
     1
 10
0.0
 20
0.0
 30
0.0
  3
*D92
  1

  0
LINE
  5
E6C
330
E6A
100
AcDbEntity
  8
标注
370
    -2
100
AcDbLine
 10
346.6207543602234
 20
175.9450475949561
 30
0.0
 11
342.4124322722178
 21
175.9450475949561
 31
0.0
  0
LINE
  5
E6D
330
E6A
100
AcDbEntity
  8
标注
370
    -2
100
AcDbLine
 10
343.0405125957516
 20
169.4332365713344
 30
0.0
 11
342.4124322722178
 21
169.4332365713344
 31
0.0
  0
LINE
  5
E6E
330
E6A
100
AcDbEntity
  8
标注
370
    -2
100
AcDbLine
 10
342.7324322722177
 20
175.2950475949561
 30
0.0
 11
342.7324322722177
 21
173.9592693166865
 31
0.0
  0
LINE
  5
E6F
330
E6A
100
AcDbEntity
  8
标注
370
    -2
100
AcDbLine
 10
342.7324322722177
 20
170.0832365713344
 30
0.0
 11
342.7324322722177
 21
170.3092693166865
 31
0.0
  0
SOLID
  5
E70
330
E6A
100
AcDbEntity
  8
标注
100
AcDbTrace
 10
342.6240989388844
 20
175.2950475949561
 30
0.0
 11
342.8407656055511
 21
175.2950475949561
 31
0.0
 12
342.7324322722177
 22
175.9450475949561
 32
0.0
 13
342.7324322722177
 23
175.9450475949561
 33
0.0
  0
SOLID
  5
E71
330
E6A
100
AcDbEntity
  8
标注
100
AcDbTrace
 10
342.6240989388844
 20
170.0832365713344
 30
0.0
 11
342.8407656055511
 21
170.0832365713344
 31
0.0
 12
342.7324322722177
 22
169.4332365713344
 32
0.0
 13
342.7324322722177
 23
169.4332365713344
 33
0.0
  0
MTEXT
  5
E72
330
E6A
100
AcDbEntity
  8
标注
100
AcDbMText
 10
342.7324322722177
 20
172.1342693166866
 30
0.0
 40
0.65
 41
0.0
 71
     5
 72
     1
  1
\A1;6 1/2"
 11
0.0000000000000001
 21
1.0
 31
0.0
 73
     1
 44
1.0
  0
POINT
  5
E73
330
E6A
100
AcDbEntity
  8
Defpoints
 62
     0
100
AcDbPoint
 10
347.5007543602234
 20
175.9450475949561
 30
0.0
  0
POINT
  5
E74
330
E6A
100
AcDbEntity
  8
Defpoints
 62
     0
100
AcDbPoint
 10
343.9205125957516
 20
169.4332365713344
 30
0.0
  0
POINT
  5
E75
330
E6A
100
AcDbEntity
  8
Defpoints
 62
     0
100
AcDbPoint
 10
342.7324322722177
 20
169.4332365713344
 30
0.0
  0
ENDBLK
  5
E76
330
E6A
100
AcDbEntity
  8
0
100
AcDbBlockEnd
  0
BLOCK
  5
E78
330
E77
100
AcDbEntity
  8
0
100
AcDbBlockBegin
  2
*D93
 70
     1
 10
0.0
 20
0.0
 30
0.0
  3
*D93
  1

  0
LINE
  5
E79
330
E77
100
AcDbEntity
  8
标注
370
    -2
100
AcDbLine
 10
321.8654109958578
 20
168.2884972423698
 30
0.0
 11
321.8654109958578
 21
168.3990795956816
 31
0.0
  0
LINE
  5
E7A
330
E77
100
AcDbEntity
  8
标注
370
    -2
100
AcDbLine
 10
330.7403722448066
 20
168.4370872344226
 30
0.0
 11
330.7403722448066
 21
168.3990795956816
 31
0.0
  0
LINE
  5
E7B
330
E77
100
AcDbEntity
  8
标注
370
    -2
100
AcDbLine
 10
322.5154109958578
 20
168.0790795956817
 30
0.0
 11
324.3695582869989
 21
168.0790795956817
 31
0.0
  0
LINE
  5
E7C
330
E77
100
AcDbEntity
  8
标注
370
    -2
100
AcDbLine
 10
330.0903722448067
 20
168.0790795956817
 30
0.0
 11
328.2362249536656
 21
168.0790795956817
 31
0.0
  0
SOLID
  5
E7D
330
E77
100
AcDbEntity
  8
标注
100
AcDbTrace
 10
322.5154109958578
 20
168.187412929015
 30
0.0
 11
322.5154109958578
 21
167.9707462623484
 31
0.0
 12
321.8654109958578
 22
168.0790795956817
 32
0.0
 13
321.8654109958578
 23
168.0790795956817
 33
0.0
  0
SOLID
  5
E7E
330
E77
100
AcDbEntity
  8
标注
100
AcDbTrace
 10
330.0903722448067
 20
168.187412929015
 30
0.0
 11
330.0903722448067
 21
167.9707462623484
 31
0.0
 12
330.7403722448066
 22
168.0790795956817
 32
0.0
 13
330.7403722448066
 23
168.0790795956817
 33
0.0
  0
MTEXT
  5
E7F
330
E77
100
AcDbEntity
  8
标注
100
AcDbMText
 10
326.3028916203321
 20
168.0790795956817
 30
0.0
 40
0.65
 41
0.0
 71
     5
 72
     1
  1
\A1;8 7/8"
 73
     1
 44
1.0
  0
POINT
  5
E80
330
E77
100
AcDbEntity
  8
Defpoints
 62
     0
100
AcDbPoint
 10
321.8654109958578
 20
167.4084972423698
 30
0.0
  0
POINT
  5
E81
330
E77
100
AcDbEntity
  8
Defpoints
 62
     0
100
AcDbPoint
 10
330.7403722448066
 20
167.5570872344227
 30
0.0
  0
POINT
  5
E82
330
E77
100
AcDbEntity
  8
Defpoints
 62
     0
100
AcDbPoint
 10
330.7403722448066
 20
168.0790795956817
 30
0.0
  0
ENDBLK
  5
E83
330
E77
100
AcDbEntity
  8
0
100
AcDbBlockEnd
  0
BLOCK
  5
F26
330
F1A
100
AcDbEntity
  8
0
100
AcDbBlockBegin
  2
*D94
 70
     1
 10
0.0
 20
0.0
 30
0.0
  3
*D94
  1

  0
LINE
  5
FB5
330
F1A
100
AcDbEntity
  8
标注
370
    -2
100
AcDbLine
 10
351.2909575010326
 20
136.3044970447669
 30
0.0
 11
357.0524917637809
 21
136.3044970447669
 31
0.0
  0
LINE
  5
FB6
330
F1A
100
AcDbEntity
  8
标注
370
    -2
100
AcDbLine
 10
352.6518618425212
 20
137.3044970447672
 30
0.0
 11
357.0524917637809
 21
137.3044970447672
 31
0.0
  0
LINE
  5
FB7
330
F1A
100
AcDbEntity
  8
标注
370
    -2
100
AcDbLine
 10
356.7324917637809
 20
135.6544970447669
 30
0.0
 11
356.7324917637809
 21
135.0044970447669
 31
0.0
  0
LINE
  5
FB8
330
F1A
100
AcDbEntity
  8
标注
370
    -2
100
AcDbLine
 10
356.7324917637809
 20
137.9544970447672
 30
0.0
 11
356.7324917637809
 21
138.6044970447672
 31
0.0
  0
LINE
  5
FB9
330
F1A
100
AcDbEntity
  8
标注
370
    -2
100
AcDbLine
 10
356.7324917637809
 20
136.3044970447669
 30
0.0
 11
356.7324917637809
 21
137.3044970447672
 31
0.0
  0
SOLID
  5
FBA
330
F1A
100
AcDbEntity
  8
标注
100
AcDbTrace
 10
356.6241584304477
 20
135.6544970447669
 30
0.0
 11
356.8408250971144
 21
135.6544970447669
 31
0.0
 12
356.7324917637809
 22
136.3044970447669
 32
0.0
 13
356.7324917637809
 23
136.3044970447669
 33
0.0
  0
SOLID
  5
FBB
330
F1A
100
AcDbEntity
  8
标注
100
AcDbTrace
 10
356.6241584304477
 20
137.9544970447672
 30
0.0
 11
356.8408250971144
 21
137.9544970447672
 31
0.0
 12
356.7324917637809
 22
137.3044970447672
 32
0.0
 13
356.7324917637809
 23
137.3044970447672
 33
0.0
  0
MTEXT
  5
FBC
330
F1A
100
AcDbEntity
  8
标注
100
AcDbMText
 10
356.7324917637809
 20
139.1294970447673
 30
0.0
 40
0.65
 41
0.0
 71
     5
 72
     1
  1
\A1;1"
 11
0.0000000000000001
 21
1.0
 31
0.0
 73
     1
 44
1.0
  0
POINT
  5
FBD
330
F1A
100
AcDbEntity
  8
Defpoints
 62
     0
100
AcDbPoint
 10
350.4109575010326
 20
136.3044970447669
 30
0.0
  0
POINT
  5
FBE
330
F1A
100
AcDbEntity
  8
Defpoints
 62
     0
100
AcDbPoint
 10
351.7718618425212
 20
137.3044970447672
 30
0.0
  0
POINT
  5
FBF
330
F1A
100
AcDbEntity
  8
Defpoints
 62
     0
100
AcDbPoint
 10
356.7324917637809
 20
137.3044970447672
 30
0.0
  0
ENDBLK
  5
F27
330
F1A
100
AcDbEntity
  8
0
100
AcDbBlockEnd
  0
BLOCK
  5
F34
330
F28
100
AcDbEntity
  8
0
100
AcDbBlockBegin
  2
*D95
 70
     1
 10
0.0
 20
0.0
 30
0.0
  3
*D95
  1

  0
LINE
  5
FC0
330
F28
100
AcDbEntity
  8
标注
370
    -2
100
AcDbLine
 10
324.8281574496959
 20
119.7690639739008
 30
0.0
 11
318.892806724411
 21
119.7690639739008
 31
0.0
  0
LINE
  5
FC1
330
F28
100
AcDbEntity
  8
标注
370
    -2
100
AcDbLine
 10
324.356428771655
 20
118.769063973901
 30
0.0
 11
318.892806724411
 21
118.769063973901
 31
0.0
  0
LINE
  5
FC2
330
F28
100
AcDbEntity
  8
标注
370
    -2
100
AcDbLine
 10
319.2128067244109
 20
120.4190639739008
 30
0.0
 11
319.2128067244109
 21
121.0690639739008
 31
0.0
  0
LINE
  5
FC3
330
F28
100
AcDbEntity
  8
标注
370
    -2
100
AcDbLine
 10
319.2128067244109
 20
118.119063973901
 30
0.0
 11
319.2128067244109
 21
117.469063973901
 31
0.0
  0
LINE
  5
FC4
330
F28
100
AcDbEntity
  8
标注
370
    -2
100
AcDbLine
 10
319.2128067244109
 20
119.7690639739008
 30
0.0
 11
319.2128067244109
 21
118.769063973901
 31
0.0
  0
SOLID
  5
FC5
330
F28
100
AcDbEntity
  8
标注
100
AcDbTrace
 10
319.1044733910776
 20
120.4190639739008
 30
0.0
 11
319.3211400577443
 21
120.4190639739008
 31
0.0
 12
319.2128067244109
 22
119.7690639739008
 32
0.0
 13
319.2128067244109
 23
119.7690639739008
 33
0.0
  0
SOLID
  5
FC6
330
F28
100
AcDbEntity
  8
标注
100
AcDbTrace
 10
319.1044733910776
 20
118.119063973901
 30
0.0
 11
319.3211400577443
 21
118.119063973901
 31
0.0
 12
319.2128067244109
 22
118.769063973901
 32
0.0
 13
319.2128067244109
 23
118.769063973901
 33
0.0
  0
MTEXT
  5
FC7
330
F28
100
AcDbEntity
  8
标注
100
AcDbMText
 10
319.2128067244109
 20
116.944063973901
 30
0.0
 40
0.65
 41
0.0
 71
     5
 72
     1
  1
\A1;1"
 11
0.0000000000000001
 21
1.0
 31
0.0
 73
     1
 44
1.0
  0
POINT
  5
FC8
330
F28
100
AcDbEntity
  8
Defpoints
 62
     0
100
AcDbPoint
 10
325.7081574496959
 20
119.7690639739008
 30
0.0
  0
POINT
  5
FC9
330
F28
100
AcDbEntity
  8
Defpoints
 62
     0
100
AcDbPoint
 10
325.236428771655
 20
118.769063973901
 30
0.0
  0
POINT
  5
FCA
330
F28
100
AcDbEntity
  8
Defpoints
 62
     0
100
AcDbPoint
 10
319.2128067244109
 20
118.769063973901
 30
0.0
  0
ENDBLK
  5
F35
330
F28
100
AcDbEntity
  8
0
100
AcDbBlockEnd
  0
BLOCK
  5
F42
330
F36
100
AcDbEntity
  8
0
100
AcDbBlockBegin
  2
*D96
 70
     1
 10
0.0
 20
0.0
 30
0.0
  3
*D96
  1

  0
LINE
  5
FCB
330
F36
100
AcDbEntity
  8
标注
370
    -2
100
AcDbLine
 10
338.7167437322853
 20
128.2591427140582
 30
0.0
 11
338.7167437322853
 21
128.4460615329039
 31
0.0
  0
LINE
  5
FCC
330
F36
100
AcDbEntity
  8
标注
370
    -2
100
AcDbLine
 10
339.9844602677182
 20
128.9167805093338
 30
0.0
 11
339.9844602677182
 21
129.0860615329039
 31
0.0
  0
LINE
  5
FCD
330
F36
100
AcDbEntity
  8
标注
370
    -2
100
AcDbLine
 10
340.6344602677182
 20
128.7660615329039
 30
0.0
 11
341.2844602677182
 21
128.7660615329039
 31
0.0
  0
LINE
  5
FCE
330
F36
100
AcDbEntity
  8
标注
370
    -2
100
AcDbLine
 10
338.0667437322853
 20
128.7660615329039
 30
0.0
 11
337.3395783779547
 21
128.7660615329039
 31
0.0
  0
LINE
  5
FCF
330
F36
100
AcDbEntity
  8
标注
370
    -2
100
AcDbLine
 10
339.9844602677182
 20
128.7660615329039
 30
0.0
 11
338.7167437322853
 21
128.7660615329039
 31
0.0
  0
SOLID
  5
FD0
330
F36
100
AcDbEntity
  8
标注
100
AcDbTrace
 10
340.6344602677182
 20
128.8743948662372
 30
0.0
 11
340.6344602677182
 21
128.6577281995706
 31
0.0
 12
339.9844602677182
 22
128.7660615329039
 32
0.0
 13
339.9844602677182
 23
128.7660615329039
 33
0.0
  0
SOLID
  5
FD1
330
F36
100
AcDbEntity
  8
标注
100
AcDbTrace
 10
338.0667437322853
 20
128.8743948662372
 30
0.0
 11
338.0667437322853
 21
128.6577281995706
 31
0.0
 12
338.7167437322853
 22
128.7660615329039
 32
0.0
 13
338.7167437322853
 23
128.7660615329039
 33
0.0
  0
MTEXT
  5
FD2
330
F36
100
AcDbEntity
  8
标注
100
AcDbMText
 10
335.6229117112881
 20
128.7660615329039
 30
0.0
 40
0.65
 41
0.0
 71
     5
 72
     1
  1
\A1;1 1/2"
 73
     1
 44
1.0
  0
POINT
  5
FD3
330
F36
100
AcDbEntity
  8
Defpoints
 62
     0
100
AcDbPoint
 10
338.7167437322853
 20
129.1391427140582
 30
0.0
  0
POINT
  5
FD4
330
F36
100
AcDbEntity
  8
Defpoints
 62
     0
100
AcDbPoint
 10
339.9844602677182
 20
128.0367805093338
 30
0.0
  0
POINT
  5
FD5
330
F36
100
AcDbEntity
  8
Defpoints
 62
     0
100
AcDbPoint
 10
339.9844602677182
 20
128.7660615329039
 30
0.0
  0
ENDBLK
  5
F43
330
F36
100
AcDbEntity
  8
0
100
AcDbBlockEnd
  0
BLOCK
  5
F50
330
F44
100
AcDbEntity
  8
0
100
AcDbBlockBegin
  2
*D97
 70
     1
 10
0.0
 20
0.0
 30
0.0
  3
*D97
  1

  0
LINE
  5
FD6
330
F44
100
AcDbEntity
  8
标注
370
    -2
100
AcDbLine
 10
352.9765862519702
 20
120.9283115578527
 30
0.0
 11
352.9765862519702
 21
115.69315846209
 31
0.0
  0
LINE
  5
FD7
330
F44
100
AcDbEntity
  8
标注
370
    -2
100
AcDbLine
 10
353.9765862519705
 20
120.484755089406
 30
0.0
 11
353.9765862519705
 21
115.69315846209
 31
0.0
  0
LINE
  5
FD8
330
F44
100
AcDbEntity
  8
标注
370
    -2
100
AcDbLine
 10
352.3265862519703
 20
116.01315846209
 30
0.0
 11
351.6765862519701
 21
116.01315846209
 31
0.0
  0
LINE
  5
FD9
330
F44
100
AcDbEntity
  8
标注
370
    -2
100
AcDbLine
 10
354.6265862519705
 20
116.01315846209
 30
0.0
 11
355.2765862519705
 21
116.01315846209
 31
0.0
  0
LINE
  5
FDA
330
F44
100
AcDbEntity
  8
标注
370
    -2
100
AcDbLine
 10
352.9765862519702
 20
116.01315846209
 30
0.0
 11
353.9765862519705
 21
116.01315846209
 31
0.0
  0
SOLID
  5
FDB
330
F44
100
AcDbEntity
  8
标注
100
AcDbTrace
 10
352.3265862519703
 20
116.1214917954233
 30
0.0
 11
352.3265862519703
 21
115.9048251287566
 31
0.0
 12
352.9765862519702
 22
116.01315846209
 32
0.0
 13
352.9765862519702
 23
116.01315846209
 33
0.0
  0
SOLID
  5
FDC
330
F44
100
AcDbEntity
  8
标注
100
AcDbTrace
 10
354.6265862519705
 20
116.1214917954233
 30
0.0
 11
354.6265862519705
 21
115.9048251287566
 31
0.0
 12
353.9765862519705
 22
116.01315846209
 32
0.0
 13
353.9765862519705
 23
116.01315846209
 33
0.0
  0
MTEXT
  5
FDD
330
F44
100
AcDbEntity
  8
标注
100
AcDbMText
 10
355.8015862519706
 20
116.01315846209
 30
0.0
 40
0.65
 41
0.0
 71
     5
 72
     1
  1
\A1;1"
 73
     1
 44
1.0
  0
POINT
  5
FDE
330
F44
100
AcDbEntity
  8
Defpoints
 62
     0
100
AcDbPoint
 10
352.9765862519702
 20
121.8083115578527
 30
0.0
  0
POINT
  5
FDF
330
F44
100
AcDbEntity
  8
Defpoints
 62
     0
100
AcDbPoint
 10
353.9765862519705
 20
121.364755089406
 30
0.0
  0
POINT
  5
FE0
330
F44
100
AcDbEntity
  8
Defpoints
 62
     0
100
AcDbPoint
 10
353.9765862519705
 20
116.01315846209
 30
0.0
  0
ENDBLK
  5
F51
330
F44
100
AcDbEntity
  8
0
100
AcDbBlockEnd
  0
BLOCK
  5
F58
330
F52
100
AcDbEntity
  8
0
100
AcDbBlockBegin
  2
*D98
 70
     1
 10
0.0
 20
0.0
 30
0.0
  3
*D98
  1

  0
LINE
  5
1010
330
F52
100
AcDbEntity
  8
标注
370
    -2
100
AcDbLine
 10
342.7065036386803
 20
122.1071338546498
 30
0.0
 11
341.971511541967
 21
121.1635485119799
 31
0.0
  0
MTEXT
  5
1011
330
F52
100
AcDbEntity
  8
标注
100
AcDbMText
 10
344.0276991094349
 20
123.8032890739789
 30
0.0
 40
0.65
 41
0.0
 71
     5
 72
     1
  1
\A1;R3 1/2"
 11
0.614509521281219
 21
0.788909404339134
 31
0.0
 73
     1
 44
1.0
  0
SOLID
  5
1012
330
F52
100
AcDbEntity
  8
标注
100
AcDbTrace
 10
341.8860463564969
 20
121.2301203767854
 30
0.0
 11
342.0569767274372
 21
121.0969766471745
 31
0.0
 12
341.5720803531342
 22
120.6507573991595
 32
0.0
 13
341.5720803531342
 23
120.6507573991595
 33
0.0
  0
POINT
  5
1013
330
F52
100
AcDbEntity
  8
Defpoints
 62
     0
100
AcDbPoint
 10
341.5720803531342
 20
120.6507573991595
 30
0.0
  0
POINT
  5
1014
330
F52
100
AcDbEntity
  8
Defpoints
 62
     0
100
AcDbPoint
 10
343.7494762946813
 20
123.4461056822502
 30
0.0
  0
ENDBLK
  5
F59
330
F52
100
AcDbEntity
  8
0
100
AcDbBlockEnd
  0
BLOCK
  5
F65
330
F5A
100
AcDbEntity
  8
0
100
AcDbBlockBegin
  2
*D99
 70
     1
 10
0.0
 20
0.0
 30
0.0
  3
*D99
  1

  0
LINE
  5
1015
330
F5A
100
AcDbEntity
  8
标注
370
    -2
100
AcDbLine
 10
324.356428771655
 20
139.5092214542161
 30
0.0
 11
316.9243027874031
 21
139.5092214542161
 31
0.0
  0
LINE
  5
1016
330
F5A
100
AcDbEntity
  8
标注
370
    -2
100
AcDbLine
 10
324.356428771655
 20
118.769063973901
 30
0.0
 11
316.9243027874031
 21
118.769063973901
 31
0.0
  0
LINE
  5
1017
330
F5A
100
AcDbEntity
  8
标注
370
    -2
100
AcDbLine
 10
317.2443027874031
 20
138.8592214542161
 30
0.0
 11
317.2443027874031
 21
131.3433093807252
 31
0.0
  0
LINE
  5
1018
330
F5A
100
AcDbEntity
  8
标注
370
    -2
100
AcDbLine
 10
317.244302787403
 20
119.419063973901
 30
0.0
 11
317.244302787403
 21
126.9349760473919
 31
0.0
  0
SOLID
  5
1019
330
F5A
100
AcDbEntity
  8
标注
100
AcDbTrace
 10
317.1359694540698
 20
138.8592214542161
 30
0.0
 11
317.3526361207365
 21
138.8592214542161
 31
0.0
 12
317.2443027874031
 22
139.5092214542161
 32
0.0
 13
317.2443027874031
 23
139.5092214542161
 33
0.0
  0
SOLID
  5
101A
330
F5A
100
AcDbEntity
  8
标注
100
AcDbTrace
 10
317.1359694540697
 20
119.419063973901
 30
0.0
 11
317.3526361207364
 21
119.419063973901
 31
0.0
 12
317.244302787403
 22
118.769063973901
 32
0.0
 13
317.244302787403
 23
118.769063973901
 33
0.0
  0
MTEXT
  5
101B
330
F5A
100
AcDbEntity
  8
标注
100
AcDbMText
 10
317.244302787403
 20
129.1391427140585
 30
0.0
 40
0.65
 41
0.0
 71
     5
 72
     1
  1
\A1;20 3/4"
 11
0.0000000000000001
 21
1.0
 31
0.0
 73
     1
 44
1.0
  0
POINT
  5
101C
330
F5A
100
AcDbEntity
  8
Defpoints
 62
     0
100
AcDbPoint
 10
325.236428771655
 20
139.5092214542161
 30
0.0
  0
POINT
  5
101D
330
F5A
100
AcDbEntity
  8
Defpoints
 62
     0
100
AcDbPoint
 10
325.236428771655
 20
118.769063973901
 30
0.0
  0
POINT
  5
101E
330
F5A
100
AcDbEntity
  8
Defpoints
 62
     0
100
AcDbPoint
 10
317.244302787403
 20
118.769063973901
 30
0.0
  0
ENDBLK
  5
F66
330
F5A
100
AcDbEntity
  8
0
100
AcDbBlockEnd
  0
BLOCK
  5
F72
330
F67
100
AcDbEntity
  8
0
100
AcDbBlockBegin
  2
*D100
 70
     1
 10
0.0
 20
0.0
 30
0.0
  3
*D100
  1

  0
LINE
  5
101F
330
F67
100
AcDbEntity
  8
标注
370
    -2
100
AcDbLine
 10
327.4251197301319
 20
138.5092214542157
 30
0.0
 11
318.892806724411
 21
138.5092214542158
 31
0.0
  0
LINE
  5
1020
330
F67
100
AcDbEntity
  8
标注
370
    -2
100
AcDbLine
 10
327.0425198022266
 20
119.7690639739008
 30
0.0
 11
318.892806724411
 21
119.7690639739008
 31
0.0
  0
LINE
  5
1021
330
F67
100
AcDbEntity
  8
标注
370
    -2
100
AcDbLine
 10
319.212806724411
 20
137.8592214542157
 30
0.0
 11
319.212806724411
 21
131.2891427140583
 31
0.0
  0
LINE
  5
1022
330
F67
100
AcDbEntity
  8
标注
370
    -2
100
AcDbLine
 10
319.2128067244109
 20
120.4190639739008
 30
0.0
 11
319.2128067244109
 21
126.9891427140583
 31
0.0
  0
SOLID
  5
1023
330
F67
100
AcDbEntity
  8
标注
100
AcDbTrace
 10
319.1044733910776
 20
137.8592214542157
 30
0.0
 11
319.3211400577443
 21
137.8592214542157
 31
0.0
 12
319.212806724411
 22
138.5092214542158
 32
0.0
 13
319.212806724411
 23
138.5092214542158
 33
0.0
  0
SOLID
  5
1024
330
F67
100
AcDbEntity
  8
标注
100
AcDbTrace
 10
319.1044733910776
 20
120.4190639739008
 30
0.0
 11
319.3211400577443
 21
120.4190639739008
 31
0.0
 12
319.2128067244109
 22
119.7690639739008
 32
0.0
 13
319.2128067244109
 23
119.7690639739008
 33
0.0
  0
MTEXT
  5
1025
330
F67
100
AcDbEntity
  8
标注
100
AcDbMText
 10
319.2128067244109
 20
129.1391427140583
 30
0.0
 40
0.65
 41
0.0
 71
     5
 72
     1
  1
\A1;18 3/4"
 11
0.0000000000000001
 21
1.0
 31
0.0
 73
     1
 44
1.0
  0
POINT
  5
1026
330
F67
100
AcDbEntity
  8
Defpoints
 62
     0
100
AcDbPoint
 10
328.3051197301319
 20
138.5092214542157
 30
0.0
  0
POINT
  5
1027
330
F67
100
AcDbEntity
  8
Defpoints
 62
     0
100
AcDbPoint
 10
327.9225198022266
 20
119.7690639739008
 30
0.0
  0
POINT
  5
1028
330
F67
100
AcDbEntity
  8
Defpoints
 62
     0
100
AcDbPoint
 10
319.2128067244109
 20
119.7690639739008
 30
0.0
  0
ENDBLK
  5
F73
330
F67
100
AcDbEntity
  8
0
100
AcDbBlockEnd
  0
BLOCK
  5
F7F
330
F74
100
AcDbEntity
  8
0
100
AcDbBlockBegin
  2
*D101
 70
     1
 10
0.0
 20
0.0
 30
0.0
  3
*D101
  1

  0
LINE
  5
1029
330
F74
100
AcDbEntity
  8
标注
370
    -2
100
AcDbLine
 10
321.9687122362219
 20
121.1567805093341
 30
0.0
 11
321.9687122362219
 21
113.7246545250821
 31
0.0
  0
LINE
  5
102A
330
F74
100
AcDbEntity
  8
标注
370
    -2
100
AcDbLine
 10
353.9765862519705
 20
121.2721566642092
 30
0.0
 11
353.9765862519705
 21
113.7246545250821
 31
0.0
  0
LINE
  5
102B
330
F74
100
AcDbEntity
  8
标注
370
    -2
100
AcDbLine
 10
322.6187122362219
 20
114.0446545250821
 30
0.0
 11
337.0143159107629
 21
114.0446545250821
 31
0.0
  0
LINE
  5
102C
330
F74
100
AcDbEntity
  8
标注
370
    -2
100
AcDbLine
 10
353.3265862519705
 20
114.0446545250821
 30
0.0
 11
338.9309825774295
 21
114.0446545250821
 31
0.0
  0
SOLID
  5
102D
330
F74
100
AcDbEntity
  8
标注
100
AcDbTrace
 10
322.6187122362219
 20
114.1529878584154
 30
0.0
 11
322.6187122362219
 21
113.9363211917487
 31
0.0
 12
321.9687122362219
 22
114.0446545250821
 32
0.0
 13
321.9687122362219
 23
114.0446545250821
 33
0.0
  0
SOLID
  5
102E
330
F74
100
AcDbEntity
  8
标注
100
AcDbTrace
 10
353.3265862519705
 20
114.1529878584154
 30
0.0
 11
353.3265862519705
 21
113.9363211917487
 31
0.0
 12
353.9765862519705
 22
114.0446545250821
 32
0.0
 13
353.9765862519705
 23
114.0446545250821
 33
0.0
  0
MTEXT
  5
102F
330
F74
100
AcDbEntity
  8
标注
100
AcDbMText
 10
337.9726492440962
 20
114.0446545250821
 30
0.0
 40
0.65
 41
0.0
 71
     5
 72
     1
  1
\A1;32"
 73
     1
 44
1.0
  0
POINT
  5
1030
330
F74
100
AcDbEntity
  8
Defpoints
 62
     0
100
AcDbPoint
 10
321.9687122362219
 20
122.0367805093341
 30
0.0
  0
POINT
  5
1031
330
F74
100
AcDbEntity
  8
Defpoints
 62
     0
100
AcDbPoint
 10
353.9765862519705
 20
122.1521566642091
 30
0.0
  0
POINT
  5
1032
330
F74
100
AcDbEntity
  8
Defpoints
 62
     0
100
AcDbPoint
 10
353.9765862519705
 20
114.0446545250821
 30
0.0
  0
ENDBLK
  5
F80
330
F74
100
AcDbEntity
  8
0
100
AcDbBlockEnd
  0
BLOCK
  5
F8C
330
F81
100
AcDbEntity
  8
0
100
AcDbBlockBegin
  2
*D102
 70
     1
 10
0.0
 20
0.0
 30
0.0
  3
*D102
  1

  0
LINE
  5
1033
330
F81
100
AcDbEntity
  8
标注
370
    -2
100
AcDbLine
 10
322.9687122362222
 20
124.0979796370192
 30
0.0
 11
322.9687122362222
 21
115.69315846209
 31
0.0
  0
LINE
  5
1034
330
F81
100
AcDbEntity
  8
标注
370
    -2
100
AcDbLine
 10
338.7167437322853
 20
124.3124837067025
 30
0.0
 11
338.7167437322853
 21
115.69315846209
 31
0.0
  0
LINE
  5
1035
330
F81
100
AcDbEntity
  8
标注
370
    -2
100
AcDbLine
 10
323.6187122362222
 20
116.01315846209
 30
0.0
 11
328.6927279842538
 21
116.01315846209
 31
0.0
  0
LINE
  5
1036
330
F81
100
AcDbEntity
  8
标注
370
    -2
100
AcDbLine
 10
338.0667437322853
 20
116.01315846209
 30
0.0
 11
332.9927279842538
 21
116.01315846209
 31
0.0
  0
SOLID
  5
1037
330
F81
100
AcDbEntity
  8
标注
100
AcDbTrace
 10
323.6187122362222
 20
116.1214917954233
 30
0.0
 11
323.6187122362222
 21
115.9048251287566
 31
0.0
 12
322.9687122362222
 22
116.01315846209
 32
0.0
 13
322.9687122362222
 23
116.01315846209
 33
0.0
  0
SOLID
  5
1038
330
F81
100
AcDbEntity
  8
标注
100
AcDbTrace
 10
338.0667437322853
 20
116.1214917954233
 30
0.0
 11
338.0667437322853
 21
115.9048251287566
 31
0.0
 12
338.7167437322853
 22
116.01315846209
 32
0.0
 13
338.7167437322853
 23
116.01315846209
 33
0.0
  0
MTEXT
  5
1039
330
F81
100
AcDbEntity
  8
标注
100
AcDbMText
 10
330.8427279842538
 20
116.01315846209
 30
0.0
 40
0.65
 41
0.0
 71
     5
 72
     1
  1
\A1;15 3/4"
 73
     1
 44
1.0
  0
POINT
  5
103A
330
F81
100
AcDbEntity
  8
Defpoints
 62
     0
100
AcDbPoint
 10
322.9687122362222
 20
124.9779796370193
 30
0.0
  0
POINT
  5
103B
330
F81
100
AcDbEntity
  8
Defpoints
 62
     0
100
AcDbPoint
 10
338.7167437322853
 20
125.1924837067025
 30
0.0
  0
POINT
  5
103C
330
F81
100
AcDbEntity
  8
Defpoints
 62
     0
100
AcDbPoint
 10
338.7167437322853
 20
116.01315846209
 30
0.0
  0
ENDBLK
  5
F8D
330
F81
100
AcDbEntity
  8
0
100
AcDbBlockEnd
  0
BLOCK
  5
F99
330
F8E
100
AcDbEntity
  8
0
100
AcDbBlockBegin
  2
*D103
 70
     1
 10
0.0
 20
0.0
 30
0.0
  3
*D103
  1

  0
LINE
  5
103D
330
F8E
100
AcDbEntity
  8
标注
370
    -2
100
AcDbLine
 10
339.9844602677182
 20
124.3843264749252
 30
0.0
 11
339.9844602677182
 21
115.69315846209
 31
0.0
  0
LINE
  5
103E
330
F8E
100
AcDbEntity
  8
标注
370
    -2
100
AcDbLine
 10
352.9765862519702
 20
124.9163921630049
 30
0.0
 11
352.9765862519702
 21
115.69315846209
 31
0.0
  0
LINE
  5
103F
330
F8E
100
AcDbEntity
  8
标注
370
    -2
100
AcDbLine
 10
340.6344602677182
 20
116.01315846209
 30
0.0
 11
345.6305232598442
 21
116.01315846209
 31
0.0
  0
LINE
  5
1040
330
F8E
100
AcDbEntity
  8
标注
370
    -2
100
AcDbLine
 10
352.3265862519703
 20
116.01315846209
 30
0.0
 11
347.3305232598442
 21
116.01315846209
 31
0.0
  0
SOLID
  5
1041
330
F8E
100
AcDbEntity
  8
标注
100
AcDbTrace
 10
340.6344602677182
 20
116.1214917954233
 30
0.0
 11
340.6344602677182
 21
115.9048251287566
 31
0.0
 12
339.9844602677182
 22
116.01315846209
 32
0.0
 13
339.9844602677182
 23
116.01315846209
 33
0.0
  0
SOLID
  5
1042
330
F8E
100
AcDbEntity
  8
标注
100
AcDbTrace
 10
352.3265862519703
 20
116.1214917954233
 30
0.0
 11
352.3265862519703
 21
115.9048251287566
 31
0.0
 12
352.9765862519702
 22
116.01315846209
 32
0.0
 13
352.9765862519702
 23
116.01315846209
 33
0.0
  0
MTEXT
  5
1043
330
F8E
100
AcDbEntity
  8
标注
100
AcDbMText
 10
346.4805232598442
 20
116.01315846209
 30
0.0
 40
0.65
 41
0.0
 71
     5
 72
     1
  1
\A1;13"
 73
     1
 44
1.0
  0
POINT
  5
1044
330
F8E
100
AcDbEntity
  8
Defpoints
 62
     0
100
AcDbPoint
 10
339.9844602677182
 20
125.2643264749252
 30
0.0
  0
POINT
  5
1045
330
F8E
100
AcDbEntity
  8
Defpoints
 62
     0
100
AcDbPoint
 10
352.9765862519702
 20
125.7963921630049
 30
0.0
  0
POINT
  5
1046
330
F8E
100
AcDbEntity
  8
Defpoints
 62
     0
100
AcDbPoint
 10
352.9765862519702
 20
116.01315846209
 30
0.0
  0
ENDBLK
  5
F9A
330
F8E
100
AcDbEntity
  8
0
100
AcDbBlockEnd
  0
BLOCK
  5
FA6
330
F9B
100
AcDbEntity
  8
0
100
AcDbBlockBegin
  2
*D104
 70
     1
 10
0.0
 20
0.0
 30
0.0
  3
*D104
  1

  0
LINE
  5
1047
330
F9B
100
AcDbEntity
  8
标注
370
    -2
100
AcDbLine
 10
351.864460267718
 20
137.3044970447672
 30
0.0
 11
359.0209957007883
 21
137.3044970447672
 31
0.0
  0
LINE
  5
1048
330
F9B
100
AcDbEntity
  8
标注
370
    -2
100
AcDbLine
 10
351.864460267718
 20
118.769063973901
 30
0.0
 11
359.0209957007883
 21
118.769063973901
 31
0.0
  0
LINE
  5
1049
330
F9B
100
AcDbEntity
  8
标注
370
    -2
100
AcDbLine
 10
358.7009957007883
 20
136.6544970447672
 30
0.0
 11
358.7009957007883
 21
130.0784471760008
 31
0.0
  0
LINE
  5
104A
330
F9B
100
AcDbEntity
  8
标注
370
    -2
100
AcDbLine
 10
358.7009957007883
 20
119.419063973901
 30
0.0
 11
358.7009957007883
 21
125.9951138426674
 31
0.0
  0
SOLID
  5
104B
330
F9B
100
AcDbEntity
  8
标注
100
AcDbTrace
 10
358.592662367455
 20
136.6544970447672
 30
0.0
 11
358.8093290341217
 21
136.6544970447672
 31
0.0
 12
358.7009957007883
 22
137.3044970447672
 32
0.0
 13
358.7009957007883
 23
137.3044970447672
 33
0.0
  0
SOLID
  5
104C
330
F9B
100
AcDbEntity
  8
标注
100
AcDbTrace
 10
358.592662367455
 20
119.419063973901
 30
0.0
 11
358.8093290341217
 21
119.419063973901
 31
0.0
 12
358.7009957007883
 22
118.769063973901
 32
0.0
 13
358.7009957007883
 23
118.769063973901
 33
0.0
  0
MTEXT
  5
104D
330
F9B
100
AcDbEntity
  8
标注
100
AcDbMText
 10
358.7009957007883
 20
128.0367805093342
 30
0.0
 40
0.65
 41
0.0
 71
     5
 72
     1
  1
\A1;18 1/2"
 11
0.0000000000000001
 21
1.0
 31
0.0
 73
     1
 44
1.0
  0
POINT
  5
104E
330
F9B
100
AcDbEntity
  8
Defpoints
 62
     0
100
AcDbPoint
 10
350.984460267718
 20
137.3044970447672
 30
0.0
  0
POINT
  5
104F
330
F9B
100
AcDbEntity
  8
Defpoints
 62
     0
100
AcDbPoint
 10
350.984460267718
 20
118.769063973901
 30
0.0
  0
POINT
  5
1050
330
F9B
100
AcDbEntity
  8
Defpoints
 62
     0
100
AcDbPoint
 10
358.7009957007883
 20
118.769063973901
 30
0.0
  0
ENDBLK
  5
FA7
330
F9B
100
AcDbEntity
  8
0
100
AcDbBlockEnd
  0
BLOCK
  5
FB3
330
FA8
100
AcDbEntity
  8
0
100
AcDbBlockBegin
  2
*D105
 70
     1
 10
0.0
 20
0.0
 30
0.0
  3
*D105
  1

  0
LINE
  5
1051
330
FA8
100
AcDbEntity
  8
标注
370
    -2
100
AcDbLine
 10
349.0518103851659
 20
136.3044970447669
 30
0.0
 11
357.0524917637811
 21
136.3044970447669
 31
0.0
  0
LINE
  5
1052
330
FA8
100
AcDbEntity
  8
标注
370
    -2
100
AcDbLine
 10
348.717201264151
 20
119.7690639739008
 30
0.0
 11
357.0524917637809
 21
119.7690639739007
 31
0.0
  0
LINE
  5
1053
330
FA8
100
AcDbEntity
  8
标注
370
    -2
100
AcDbLine
 10
356.7324917637811
 20
135.6544970447669
 30
0.0
 11
356.7324917637811
 21
130.0784471760005
 31
0.0
  0
LINE
  5
1054
330
FA8
100
AcDbEntity
  8
标注
370
    -2
100
AcDbLine
 10
356.7324917637809
 20
120.4190639739008
 30
0.0
 11
356.7324917637809
 21
125.9951138426671
 31
0.0
  0
SOLID
  5
1055
330
FA8
100
AcDbEntity
  8
标注
100
AcDbTrace
 10
356.6241584304477
 20
135.6544970447669
 30
0.0
 11
356.8408250971144
 21
135.6544970447669
 31
0.0
 12
356.7324917637811
 22
136.3044970447669
 32
0.0
 13
356.7324917637811
 23
136.3044970447669
 33
0.0
  0
SOLID
  5
1056
330
FA8
100
AcDbEntity
  8
标注
100
AcDbTrace
 10
356.6241584304477
 20
120.4190639739008
 30
0.0
 11
356.8408250971144
 21
120.4190639739008
 31
0.0
 12
356.7324917637809
 22
119.7690639739007
 32
0.0
 13
356.7324917637809
 23
119.7690639739007
 33
0.0
  0
MTEXT
  5
1057
330
FA8
100
AcDbEntity
  8
标注
100
AcDbMText
 10
356.7324917637809
 20
128.0367805093339
 30
0.0
 40
0.65
 41
0.0
 71
     5
 72
     1
  1
\A1;16 1/2"
 11
0.0000000000000001
 21
1.0
 31
0.0
 73
     1
 44
1.0
  0
POINT
  5
1058
330
FA8
100
AcDbEntity
  8
Defpoints
 62
     0
100
AcDbPoint
 10
348.171810385166
 20
136.3044970447669
 30
0.0
  0
POINT
  5
1059
330
FA8
100
AcDbEntity
  8
Defpoints
 62
     0
100
AcDbPoint
 10
347.837201264151
 20
119.7690639739008
 30
0.0
  0
POINT
  5
105A
330
FA8
100
AcDbEntity
  8
Defpoints
 62
     0
100
AcDbPoint
 10
356.7324917637809
 20
119.7690639739007
 30
0.0
  0
ENDBLK
  5
FB4
330
FA8
100
AcDbEntity
  8
0
100
AcDbBlockEnd
  0
BLOCK
  5
FEC
330
FE1
100
AcDbEntity
  8
0
100
AcDbBlockBegin
  2
*D106
 70
     1
 10
0.0
 20
0.0
 30
0.0
  3
*D106
  1

  0
LINE
  5
FE2
330
FE1
100
AcDbEntity
  8
标注
370
    -2
100
AcDbLine
 10
321.9687122362219
 20
129.64794669218
 30
0.0
 11
321.9687122362219
 21
129.7585290454919
 31
0.0
  0
LINE
  5
FE3
330
FE1
100
AcDbEntity
  8
标注
370
    -2
100
AcDbLine
 10
330.8436734851706
 20
129.7965366842329
 30
0.0
 11
330.8436734851706
 21
129.7585290454919
 31
0.0
  0
LINE
  5
FE4
330
FE1
100
AcDbEntity
  8
标注
370
    -2
100
AcDbLine
 10
322.6187122362219
 20
129.4385290454919
 30
0.0
 11
324.472859527363
 21
129.4385290454919
 31
0.0
  0
LINE
  5
FE5
330
FE1
100
AcDbEntity
  8
标注
370
    -2
100
AcDbLine
 10
330.1936734851707
 20
129.4385290454919
 30
0.0
 11
328.3395261940297
 21
129.4385290454919
 31
0.0
  0
SOLID
  5
FE6
330
FE1
100
AcDbEntity
  8
标注
100
AcDbTrace
 10
322.6187122362219
 20
129.5468623788252
 30
0.0
 11
322.6187122362219
 21
129.3301957121586
 31
0.0
 12
321.9687122362219
 22
129.4385290454919
 32
0.0
 13
321.9687122362219
 23
129.4385290454919
 33
0.0
  0
SOLID
  5
FE7
330
FE1
100
AcDbEntity
  8
标注
100
AcDbTrace
 10
330.1936734851707
 20
129.5468623788252
 30
0.0
 11
330.1936734851707
 21
129.3301957121586
 31
0.0
 12
330.8436734851706
 22
129.4385290454919
 32
0.0
 13
330.8436734851706
 23
129.4385290454919
 33
0.0
  0
MTEXT
  5
FE8
330
FE1
100
AcDbEntity
  8
标注
100
AcDbMText
 10
326.4061928606963
 20
129.4385290454919
 30
0.0
 40
0.65
 41
0.0
 71
     5
 72
     1
  1
\A1;8 7/8"
 73
     1
 44
1.0
  0
POINT
  5
FE9
330
FE1
100
AcDbEntity
  8
Defpoints
 62
     0
100
AcDbPoint
 10
321.9687122362219
 20
128.76794669218
 30
0.0
  0
POINT
  5
FEA
330
FE1
100
AcDbEntity
  8
Defpoints
 62
     0
100
AcDbPoint
 10
330.8436734851706
 20
128.9165366842329
 30
0.0
  0
POINT
  5
FEB
330
FE1
100
AcDbEntity
  8
Defpoints
 62
     0
100
AcDbPoint
 10
330.8436734851706
 20
129.4385290454919
 30
0.0
  0
ENDBLK
  5
FED
330
FE1
100
AcDbEntity
  8
0
100
AcDbBlockEnd
  0
BLOCK
  5
FF9
330
FEE
100
AcDbEntity
  8
0
100
AcDbBlockBegin
  2
*D107
 70
     1
 10
0.0
 20
0.0
 30
0.0
  3
*D107
  1

  0
LINE
  5
FEF
330
FEE
100
AcDbEntity
  8
标注
370
    -2
100
AcDbLine
 10
346.7240556005874
 20
137.3044970447664
 30
0.0
 11
342.5157335125819
 21
137.3044970447664
 31
0.0
  0
LINE
  5
FF0
330
FEE
100
AcDbEntity
  8
标注
370
    -2
100
AcDbLine
 10
343.1438138361157
 20
130.7926860211446
 30
0.0
 11
342.5157335125819
 21
130.7926860211446
 31
0.0
  0
LINE
  5
FF1
330
FEE
100
AcDbEntity
  8
标注
370
    -2
100
AcDbLine
 10
342.8357335125818
 20
136.6544970447664
 30
0.0
 11
342.8357335125818
 21
135.3187187664967
 31
0.0
  0
LINE
  5
FF2
330
FEE
100
AcDbEntity
  8
标注
370
    -2
100
AcDbLine
 10
342.8357335125818
 20
131.4426860211446
 30
0.0
 11
342.8357335125818
 21
131.6687187664967
 31
0.0
  0
SOLID
  5
FF3
330
FEE
100
AcDbEntity
  8
标注
100
AcDbTrace
 10
342.7274001792485
 20
136.6544970447664
 30
0.0
 11
342.9440668459152
 21
136.6544970447664
 31
0.0
 12
342.8357335125818
 22
137.3044970447664
 32
0.0
 13
342.8357335125818
 23
137.3044970447664
 33
0.0
  0
SOLID
  5
FF4
330
FEE
100
AcDbEntity
  8
标注
100
AcDbTrace
 10
342.7274001792485
 20
131.4426860211446
 30
0.0
 11
342.9440668459152
 21
131.4426860211446
 31
0.0
 12
342.8357335125818
 22
130.7926860211446
 32
0.0
 13
342.8357335125818
 23
130.7926860211446
 33
0.0
  0
MTEXT
  5
FF5
330
FEE
100
AcDbEntity
  8
标注
100
AcDbMText
 10
342.8357335125818
 20
133.4937187664968
 30
0.0
 40
0.65
 41
0.0
 71
     5
 72
     1
  1
\A1;6 1/2"
 11
0.0000000000000001
 21
1.0
 31
0.0
 73
     1
 44
1.0
  0
POINT
  5
FF6
330
FEE
100
AcDbEntity
  8
Defpoints
 62
     0
100
AcDbPoint
 10
347.6040556005874
 20
137.3044970447664
 30
0.0
  0
POINT
  5
FF7
330
FEE
100
AcDbEntity
  8
Defpoints
 62
     0
100
AcDbPoint
 10
344.0238138361157
 20
130.7926860211446
 30
0.0
  0
POINT
  5
FF8
330
FEE
100
AcDbEntity
  8
Defpoints
 62
     0
100
AcDbPoint
 10
342.8357335125818
 20
130.7926860211446
 30
0.0
  0
ENDBLK
  5
FFA
330
FEE
100
AcDbEntity
  8
0
100
AcDbBlockEnd
  0
BLOCK
  5
1006
330
FFB
100
AcDbEntity
  8
0
100
AcDbBlockBegin
  2
*D108
 70
     1
 10
0.0
 20
0.0
 30
0.0
  3
*D108
  1

  0
LINE
  5
FFC
330
FFB
100
AcDbEntity
  8
标注
370
    -2
100
AcDbLine
 10
335.0455218726949
 20
139.5092214542161
 30
0.0
 11
334.1114363992555
 21
139.5092214542161
 31
0.0
  0
LINE
  5
FFD
330
FFB
100
AcDbEntity
  8
标注
370
    -2
100
AcDbLine
 10
334.4893198539497
 20
132.9974104305937
 30
0.0
 11
334.1114363992555
 21
132.9974104305937
 31
0.0
  0
LINE
  5
FFE
330
FFB
100
AcDbEntity
  8
标注
370
    -2
100
AcDbLine
 10
334.4314363992554
 20
138.859221454216
 30
0.0
 11
334.4314363992554
 21
137.6225927620144
 31
0.0
  0
LINE
  5
FFF
330
FFB
100
AcDbEntity
  8
标注
370
    -2
100
AcDbLine
 10
334.4314363992554
 20
133.6474104305937
 30
0.0
 11
334.4314363992554
 21
133.9725927620144
 31
0.0
  0
SOLID
  5
1000
330
FFB
100
AcDbEntity
  8
标注
100
AcDbTrace
 10
334.3231030659221
 20
138.859221454216
 30
0.0
 11
334.5397697325888
 21
138.859221454216
 31
0.0
 12
334.4314363992554
 22
139.5092214542161
 32
0.0
 13
334.4314363992554
 23
139.5092214542161
 33
0.0
  0
SOLID
  5
1001
330
FFB
100
AcDbEntity
  8
标注
100
AcDbTrace
 10
334.3231030659221
 20
133.6474104305937
 30
0.0
 11
334.5397697325888
 21
133.6474104305937
 31
0.0
 12
334.4314363992554
 22
132.9974104305937
 32
0.0
 13
334.4314363992554
 23
132.9974104305937
 33
0.0
  0
MTEXT
  5
1002
330
FFB
100
AcDbEntity
  8
标注
100
AcDbMText
 10
334.4314363992554
 20
135.7975927620145
 30
0.0
 40
0.65
 41
0.0
 71
     5
 72
     1
  1
\A1;6 1/2"
 11
0.0000000000000001
 21
1.0
 31
0.0
 73
     1
 44
1.0
  0
POINT
  5
1003
330
FFB
100
AcDbEntity
  8
Defpoints
 62
     0
100
AcDbPoint
 10
335.9255218726949
 20
139.5092214542161
 30
0.0
  0
POINT
  5
1004
330
FFB
100
AcDbEntity
  8
Defpoints
 62
     0
100
AcDbPoint
 10
335.3693198539497
 20
132.9974104305937
 30
0.0
  0
POINT
  5
1005
330
FFB
100
AcDbEntity
  8
Defpoints
 62
     0
100
AcDbPoint
 10
334.4314363992554
 20
132.9974104305937
 30
0.0
  0
ENDBLK
  5
1007
330
FFB
100
AcDbEntity
  8
0
100
AcDbBlockEnd
  0
BLOCK
  5
100E
330
1008
100
AcDbEntity
  8
0
100
AcDbBlockBegin
  2
*D109
 70
     1
 10
0.0
 20
0.0
 30
0.0
  3
*D109
  1

  0
LINE
  5
1009
330
1008
100
AcDbEntity
  8
标注
370
    -2
100
AcDbLine
 10
336.3875645005574
 20
123.0432692457542
 30
0.0
 11
337.572786935738
 21
122.5147979363628
 31
0.0
  0
MTEXT
  5
100A
330
1008
100
AcDbEntity
  8
标注
100
AcDbMText
 10
334.3249766180862
 20
123.9629434660776
 30
0.0
 40
0.65
 41
0.0
 71
     5
 72
     1
  1
\A1;R3 7/8"
 11
0.9133230475887179
 21
-0.4072358171173754
 31
0.0
 73
     1
 44
1.0
  0
SOLID
  5
100B
330
1008
100
AcDbEntity
  8
标注
100
AcDbTrace
 10
337.616904149259
 20
122.6137412665182
 30
0.0
 11
337.5286697222169
 21
122.4158546062073
 31
0.0
 12
338.1664469166706
 22
122.2500946552365
 32
0.0
 13
338.1664469166706
 23
122.2500946552365
 33
0.0
  0
POINT
  5
100C
330
1008
100
AcDbEntity
  8
Defpoints
 62
     0
100
AcDbPoint
 10
338.1664469166706
 20
122.2500946552365
 30
0.0
  0
POINT
  5
100D
330
1008
100
AcDbEntity
  8
Defpoints
 62
     0
100
AcDbPoint
 10
334.5706868867939
 20
123.8533852738088
 30
0.0
  0
ENDBLK
  5
100F
330
1008
100
AcDbEntity
  8
0
100
AcDbBlockEnd
  0
BLOCK
  5
1126
330
1120
100
AcDbEntity
  8
0
100
AcDbBlockBegin
  2
*D110
 70
     1
 10
0.0
 20
0.0
 30
0.0
  3
*D110
  1

  0
LINE
  5
112F
330
1120
100
AcDbEntity
  8
标注
370
    -2
100
AcDbLine
 10
336.4346562332256
 20
160.558810554888
 30
0.0
 11
336.8988584278272
 21
160.1038200906726
 31
0.0
  0
MTEXT
  5
1130
330
1120
100
AcDbEntity
  8
标注
100
AcDbMText
 10
334.8992182049278
 20
162.063779013447
 30
0.0
 40
0.65
 41
0.0
 71
     5
 72
     1
  1
\A1;R3 1/2"
 11
0.7141572224640581
 21
-0.6999853295622858
 31
0.0
 73
     1
 44
1.0
  0
SOLID
  5
1131
330
1120
100
AcDbEntity
  8
标注
100
AcDbTrace
 10
336.9746901718631
 20
160.1811871231062
 30
0.0
 11
336.8230266837914
 21
160.026453058239
 31
0.0
 12
337.3630606224289
 22
159.6488296264571
 32
0.0
 13
337.3630606224289
 23
159.6488296264571
 33
0.0
  0
POINT
  5
1132
330
1120
100
AcDbEntity
  8
Defpoints
 62
     0
100
AcDbPoint
 10
337.3630606224289
 20
159.6488296264571
 30
0.0
  0
POINT
  5
1133
330
1120
100
AcDbEntity
  8
Defpoints
 62
     0
100
AcDbPoint
 10
334.8325873360719
 20
162.1290876446952
 30
0.0
  0
ENDBLK
  5
1127
330
1120
100
AcDbEntity
  8
0
100
AcDbBlockEnd
  0
BLOCK
  5
1305
330
1304
100
AcDbEntity
  8
0
100
AcDbBlockBegin
  2
*D111
 70
     1
 10
0.0
 20
0.0
 30
0.0
  3
*D111
  1

  0
LINE
  5
1306
330
1304
100
AcDbEntity
  8
标注
370
    -2
100
AcDbLine
 10
-1345.381615169193
 20
557.2192351465478
 30
0.0
 11
-1345.381615169193
 21
389.919055135455
 31
0.0
  0
LINE
  5
1307
330
1304
100
AcDbEntity
  8
标注
370
    -2
100
AcDbLine
 10
-634.3816151691935
 20
557.2192351465478
 30
0.0
 11
-634.3816151691935
 21
389.919055135455
 31
0.0
  0
LINE
  5
1308
330
1304
100
AcDbEntity
  8
标注
370
    -2
100
AcDbLine
 10
-1329.381615169193
 20
394.9190551354551
 30
0.0
 11
-1052.0301371591
 21
394.9190551354551
 31
0.0
  0
LINE
  5
1309
330
1304
100
AcDbEntity
  8
标注
370
    -2
100
AcDbLine
 10
-650.3816151691935
 20
394.9190551354551
 30
0.0
 11
-927.7330931792873
 21
394.9190551354551
 31
0.0
  0
SOLID
  5
130A
330
1304
100
AcDbEntity
  8
标注
100
AcDbTrace
 10
-1329.381615169193
 20
397.5857218021216
 30
0.0
 11
-1329.381615169193
 21
392.2523884687883
 31
0.0
 12
-1345.381615169193
 22
394.9190551354551
 32
0.0
 13
-1345.381615169193
 23
394.9190551354551
 33
0.0
  0
SOLID
  5
130B
330
1304
100
AcDbEntity
  8
标注
100
AcDbTrace
 10
-650.3816151691935
 20
397.5857218021216
 30
0.0
 11
-650.3816151691935
 21
392.2523884687883
 31
0.0
 12
-634.3816151691935
 22
394.9190551354551
 32
0.0
 13
-634.3816151691935
 23
394.9190551354551
 33
0.0
  0
MTEXT
  5
130C
330
1304
100
AcDbEntity
  8
标注
100
AcDbMText
 10
-989.8816151691935
 20
394.9190551354551
 30
0.0
 40
16.0
 41
0.0
 71
     5
 72
     1
  1
\A1;711mm [28"]
 73
     1
 44
1.0
  0
POINT
  5
130D
330
1304
100
AcDbEntity
  8
Defpoints
 62
     0
100
AcDbPoint
 10
-1345.381615169193
 20
587.2192351465478
 30
0.0
  0
POINT
  5
130E
330
1304
100
AcDbEntity
  8
Defpoints
 62
     0
100
AcDbPoint
 10
-634.3816151691935
 20
587.2192351465478
 30
0.0
  0
POINT
  5
130F
330
1304
100
AcDbEntity
  8
Defpoints
 62
     0
100
AcDbPoint
 10
-634.3816151691935
 20
394.9190551354551
 30
0.0
  0
ENDBLK
  5
1310
330
1304
100
AcDbEntity
  8
0
100
AcDbBlockEnd
  0
BLOCK
  5
1312
330
1311
100
AcDbEntity
  8
0
100
AcDbBlockBegin
  2
*D112
 70
     1
 10
0.0
 20
0.0
 30
0.0
  3
*D112
  1

  0
LINE
  5
1313
330
1311
100
AcDbEntity
  8
标注
370
    -2
100
AcDbLine
 10
-1370.781615169195
 20
557.2192351465478
 30
0.0
 11
-1370.781615169195
 21
329.5409464008699
 31
0.0
  0
LINE
  5
1314
330
1311
100
AcDbEntity
  8
标注
370
    -2
100
AcDbLine
 10
-608.9816151691921
 20
557.2192351465487
 30
0.0
 11
-608.9816151691921
 21
329.5409464008699
 31
0.0
  0
LINE
  5
1315
330
1311
100
AcDbEntity
  8
标注
370
    -2
100
AcDbLine
 10
-1354.781615169195
 20
334.5409464008699
 30
0.0
 11
-1052.0301371591
 21
334.5409464008699
 31
0.0
  0
LINE
  5
1316
330
1311
100
AcDbEntity
  8
标注
370
    -2
100
AcDbLine
 10
-624.9816151691921
 20
334.5409464008699
 30
0.0
 11
-927.7330931792873
 21
334.5409464008699
 31
0.0
  0
SOLID
  5
1317
330
1311
100
AcDbEntity
  8
标注
100
AcDbTrace
 10
-1354.781615169195
 20
337.2076130675365
 30
0.0
 11
-1354.781615169195
 21
331.8742797342032
 31
0.0
 12
-1370.781615169195
 22
334.5409464008699
 32
0.0
 13
-1370.781615169195
 23
334.5409464008699
 33
0.0
  0
SOLID
  5
1318
330
1311
100
AcDbEntity
  8
标注
100
AcDbTrace
 10
-624.9816151691921
 20
337.2076130675365
 30
0.0
 11
-624.9816151691921
 21
331.8742797342032
 31
0.0
 12
-608.9816151691921
 22
334.5409464008699
 32
0.0
 13
-608.9816151691921
 23
334.5409464008699
 33
0.0
  0
MTEXT
  5
1319
330
1311
100
AcDbEntity
  8
标注
100
AcDbMText
 10
-989.8816151691935
 20
334.5409464008699
 30
0.0
 40
16.0
 41
0.0
 71
     5
 72
     1
  1
\A1;762mm [30"]
 73
     1
 44
1.0
  0
POINT
  5
131A
330
1311
100
AcDbEntity
  8
Defpoints
 62
     0
100
AcDbPoint
 10
-1370.781615169195
 20
587.2192351465478
 30
0.0
  0
POINT
  5
131B
330
1311
100
AcDbEntity
  8
Defpoints
 62
     0
100
AcDbPoint
 10
-608.9816151691921
 20
587.2192351465487
 30
0.0
  0
POINT
  5
131C
330
1311
100
AcDbEntity
  8
Defpoints
 62
     0
100
AcDbPoint
 10
-608.9816151691921
 20
334.5409464008699
 30
0.0
  0
ENDBLK
  5
131D
330
1311
100
AcDbEntity
  8
0
100
AcDbBlockEnd
  0
BLOCK
  5
131F
330
131E
100
AcDbEntity
  8
0
100
AcDbBlockBegin
  2
*D113
 70
     1
 10
0.0
 20
0.0
 30
0.0
  3
*D113
  1

  0
LINE
  5
1320
330
131E
100
AcDbEntity
  8
标注
370
    -2
100
AcDbLine
 10
-704.3816151691935
 20
895.2192351465479
 30
0.0
 11
-539.6644822662055
 21
895.2192351465479
 31
0.0
  0
LINE
  5
1321
330
131E
100
AcDbEntity
  8
标注
370
    -2
100
AcDbLine
 10
-704.3816151691935
 20
487.2192351465478
 30
0.0
 11
-539.6644822662056
 21
487.2192351465478
 31
0.0
  0
LINE
  5
1322
330
131E
100
AcDbEntity
  8
标注
370
    -2
100
AcDbLine
 10
-544.6644822662054
 20
879.2192351465477
 30
0.0
 11
-544.6644822662054
 21
771.6691269994677
 31
0.0
  0
LINE
  5
1323
330
131E
100
AcDbEntity
  8
标注
370
    -2
100
AcDbLine
 10
-544.6644822662054
 20
503.2192351465477
 30
0.0
 11
-544.6644822662054
 21
610.7693432936278
 31
0.0
  0
SOLID
  5
1324
330
131E
100
AcDbEntity
  8
标注
100
AcDbTrace
 10
-547.3311489328721
 20
879.2192351465477
 30
0.0
 11
-541.9978155995388
 21
879.2192351465477
 31
0.0
 12
-544.6644822662054
 22
895.2192351465479
 32
0.0
 13
-544.6644822662054
 23
895.2192351465479
 33
0.0
  0
SOLID
  5
1325
330
131E
100
AcDbEntity
  8
标注
100
AcDbTrace
 10
-547.3311489328721
 20
503.2192351465477
 30
0.0
 11
-541.9978155995388
 21
503.2192351465477
 31
0.0
 12
-544.6644822662054
 22
487.2192351465478
 32
0.0
 13
-544.6644822662054
 23
487.2192351465478
 33
0.0
  0
MTEXT
  5
1326
330
131E
100
AcDbEntity
  8
标注
100
AcDbMText
 10
-544.6644822662057
 20
691.2192351465477
 30
0.0
 40
16.0
 41
0.0
 71
     5
 72
     1
  1
\A1;408mm [16 1/8"]
 11
0.0000000000000001
 21
1.0
 31
0.0
 73
     1
 44
1.0
  0
POINT
  5
1327
330
131E
100
AcDbEntity
  8
Defpoints
 62
     0
100
AcDbPoint
 10
-734.3816151691935
 20
895.2192351465479
 30
0.0
  0
POINT
  5
1328
330
131E
100
AcDbEntity
  8
Defpoints
 62
     0
100
AcDbPoint
 10
-734.3816151691935
 20
487.2192351465478
 30
0.0
  0
POINT
  5
1329
330
131E
100
AcDbEntity
  8
Defpoints
 62
     0
100
AcDbPoint
 10
-544.6644822662054
 20
487.2192351465478
 30
0.0
  0
ENDBLK
  5
132A
330
131E
100
AcDbEntity
  8
0
100
AcDbBlockEnd
  0
BLOCK
  5
132C
330
132B
100
AcDbEntity
  8
0
100
AcDbBlockBegin
  2
*D114
 70
     1
 10
0.0
 20
0.0
 30
0.0
  3
*D114
  1

  0
LINE
  5
132D
330
132B
100
AcDbEntity
  8
标注
370
    -2
100
AcDbLine
 10
-704.3816151691965
 20
920.6192351465476
 30
0.0
 11
-473.2197048320375
 21
920.6192351465476
 31
0.0
  0
LINE
  5
132E
330
132B
100
AcDbEntity
  8
标注
370
    -2
100
AcDbLine
 10
-704.3816151691914
 20
461.8192351465486
 30
0.0
 11
-473.2197048320377
 21
461.8192351465483
 31
0.0
  0
LINE
  5
132F
330
132B
100
AcDbEntity
  8
标注
370
    -2
100
AcDbLine
 10
-478.2197048320377
 20
904.6192351465476
 30
0.0
 11
-478.2197048320377
 21
771.669126999468
 31
0.0
  0
LINE
  5
1330
330
132B
100
AcDbEntity
  8
标注
370
    -2
100
AcDbLine
 10
-478.2197048320377
 20
477.8192351465484
 30
0.0
 11
-478.2197048320377
 21
610.7693432936282
 31
0.0
  0
SOLID
  5
1331
330
132B
100
AcDbEntity
  8
标注
100
AcDbTrace
 10
-480.8863714987042
 20
904.6192351465476
 30
0.0
 11
-475.5530381653708
 21
904.6192351465476
 31
0.0
 12
-478.2197048320377
 22
920.6192351465476
 32
0.0
 13
-478.2197048320377
 23
920.6192351465476
 33
0.0
  0
SOLID
  5
1332
330
132B
100
AcDbEntity
  8
标注
100
AcDbTrace
 10
-480.8863714987043
 20
477.8192351465484
 30
0.0
 11
-475.5530381653708
 21
477.8192351465484
 31
0.0
 12
-478.2197048320377
 22
461.8192351465483
 32
0.0
 13
-478.2197048320377
 23
461.8192351465483
 33
0.0
  0
MTEXT
  5
1333
330
132B
100
AcDbEntity
  8
标注
100
AcDbMText
 10
-478.2197048320377
 20
691.2192351465481
 30
0.0
 40
16.0
 41
0.0
 71
     5
 72
     1
  1
\A1;459mm [18 1/8"]
 11
0.0000000000000001
 21
1.0
 31
0.0
 73
     1
 44
1.0
  0
POINT
  5
1334
330
132B
100
AcDbEntity
  8
Defpoints
 62
     0
100
AcDbPoint
 10
-734.3816151691965
 20
920.6192351465476
 30
0.0
  0
POINT
  5
1335
330
132B
100
AcDbEntity
  8
Defpoints
 62
     0
100
AcDbPoint
 10
-734.3816151691915
 20
461.8192351465486
 30
0.0
  0
POINT
  5
1336
330
132B
100
AcDbEntity
  8
Defpoints
 62
     0
100
AcDbPoint
 10
-478.2197048320377
 20
461.8192351465483
 30
0.0
  0
ENDBLK
  5
1337
330
132B
100
AcDbEntity
  8
0
100
AcDbBlockEnd
  0
BLOCK
  5
1339
330
1338
100
AcDbEntity
  8
0
100
AcDbBlockBegin
  2
*D115
 70
     1
 10
0.0
 20
0.0
 30
0.0
  3
*D115
  1

  0
LINE
  5
133A
330
1338
100
AcDbEntity
  8
标注
370
    -2
100
AcDbLine
 10
-578.9816151691992
 20
1256.643298868509
 30
0.0
 11
-539.5669125318818
 21
1256.643298868509
 31
0.0
  0
LINE
  5
133B
330
1338
100
AcDbEntity
  8
标注
370
    -2
100
AcDbLine
 10
-788.2746162191907
 20
1028.043298868648
 30
0.0
 11
-539.5669125318818
 21
1028.043298868648
 31
0.0
  0
LINE
  5
133C
330
1338
100
AcDbEntity
  8
标注
370
    -2
100
AcDbLine
 10
-544.5669125318818
 20
1240.643298868509
 30
0.0
 11
-544.5669125318818
 21
1198.770119344426
 31
0.0
  0
LINE
  5
133D
330
1338
100
AcDbEntity
  8
标注
370
    -2
100
AcDbLine
 10
-544.5669125318818
 20
1044.043298868648
 30
0.0
 11
-544.5669125318818
 21
1085.916478392731
 31
0.0
  0
SOLID
  5
133E
330
1338
100
AcDbEntity
  8
标注
100
AcDbTrace
 10
-547.2335791985482
 20
1240.643298868509
 30
0.0
 11
-541.9002458652151
 21
1240.643298868509
 31
0.0
 12
-544.5669125318818
 22
1256.643298868509
 32
0.0
 13
-544.5669125318818
 23
1256.643298868509
 33
0.0
  0
SOLID
  5
133F
330
1338
100
AcDbEntity
  8
标注
100
AcDbTrace
 10
-547.2335791985482
 20
1044.043298868648
 30
0.0
 11
-541.9002458652151
 21
1044.043298868648
 31
0.0
 12
-544.5669125318818
 22
1028.043298868648
 32
0.0
 13
-544.5669125318818
 23
1028.043298868648
 33
0.0
  0
MTEXT
  5
1340
330
1338
100
AcDbEntity
  8
标注
100
AcDbMText
 10
-544.5669125318818
 20
1142.343298868578
 30
0.0
 40
16.0
 41
0.0
 71
     5
 72
     1
  1
\A1;229mm [9"]
 11
0.0000000000000001
 21
1.0
 31
0.0
 73
     1
 44
1.0
  0
POINT
  5
1341
330
1338
100
AcDbEntity
  8
Defpoints
 62
     0
100
AcDbPoint
 10
-608.9816151691992
 20
1256.643298868509
 30
0.0
  0
POINT
  5
1342
330
1338
100
AcDbEntity
  8
Defpoints
 62
     0
100
AcDbPoint
 10
-818.2746162191905
 20
1028.043298868648
 30
0.0
  0
POINT
  5
1343
330
1338
100
AcDbEntity
  8
Defpoints
 62
     0
100
AcDbPoint
 10
-544.5669125318818
 20
1028.043298868648
 30
0.0
  0
ENDBLK
  5
1344
330
1338
100
AcDbEntity
  8
0
100
AcDbBlockEnd
  0
BLOCK
  5
13A4
330
1399
100
AcDbEntity
  8
0
100
AcDbBlockBegin
  2
*D117
 70
     1
 10
0.0
 20
0.0
 30
0.0
  3
*D117
  1

  0
LINE
  5
1498
330
1399
100
AcDbEntity
  8
标注
370
    -2
100
AcDbLine
 10
381.6016435742947
 20
162.9113254194082
 30
0.0
 11
381.6016435742947
 21
155.900452190625
 31
0.0
  0
LINE
  5
1499
330
1399
100
AcDbEntity
  8
标注
370
    -2
100
AcDbLine
 10
409.5937695585466
 20
162.9113254194082
 30
0.0
 11
409.5937695585466
 21
155.900452190625
 31
0.0
  0
LINE
  5
149A
330
1399
100
AcDbEntity
  8
标注
370
    -2
100
AcDbLine
 10
382.2516435742947
 20
156.220452190625
 30
0.0
 11
394.6393732330874
 21
156.220452190625
 31
0.0
  0
LINE
  5
149B
330
1399
100
AcDbEntity
  8
标注
370
    -2
100
AcDbLine
 10
408.9437695585466
 20
156.220452190625
 30
0.0
 11
396.556039899754
 21
156.220452190625
 31
0.0
  0
SOLID
  5
149C
330
1399
100
AcDbEntity
  8
标注
100
AcDbTrace
 10
382.2516435742947
 20
156.3287855239583
 30
0.0
 11
382.2516435742947
 21
156.1121188572917
 31
0.0
 12
381.6016435742947
 22
156.220452190625
 32
0.0
 13
381.6016435742947
 23
156.220452190625
 33
0.0
  0
SOLID
  5
149D
330
1399
100
AcDbEntity
  8
标注
100
AcDbTrace
 10
408.9437695585466
 20
156.3287855239583
 30
0.0
 11
408.9437695585466
 21
156.1121188572917
 31
0.0
 12
409.5937695585466
 22
156.220452190625
 32
0.0
 13
409.5937695585466
 23
156.220452190625
 33
0.0
  0
MTEXT
  5
149E
330
1399
100
AcDbEntity
  8
标注
100
AcDbMText
 10
395.5977065664207
 20
156.220452190625
 30
0.0
 40
0.65
 41
0.0
 71
     5
 72
     1
  1
\A1;28"
 73
     1
 44
1.0
  0
POINT
  5
149F
330
1399
100
AcDbEntity
  8
Defpoints
 62
     0
100
AcDbPoint
 10
381.6016435742947
 20
163.7913254194082
 30
0.0
  0
POINT
  5
14A0
330
1399
100
AcDbEntity
  8
Defpoints
 62
     0
100
AcDbPoint
 10
409.5937695585466
 20
163.7913254194082
 30
0.0
  0
POINT
  5
14A1
330
1399
100
AcDbEntity
  8
Defpoints
 62
     0
100
AcDbPoint
 10
409.5937695585466
 20
156.220452190625
 30
0.0
  0
ENDBLK
  5
13A5
330
1399
100
AcDbEntity
  8
0
100
AcDbBlockEnd
  0
BLOCK
  5
13B1
330
13A6
100
AcDbEntity
  8
0
100
AcDbBlockBegin
  2
*D118
 70
     1
 10
0.0
 20
0.0
 30
0.0
  3
*D118
  1

  0
LINE
  5
148E
330
13A6
100
AcDbEntity
  8
标注
370
    -2
100
AcDbLine
 10
380.6016435742946
 20
162.9113254194082
 30
0.0
 11
380.6016435742946
 21
153.5233612955626
 31
0.0
  0
LINE
  5
148F
330
13A6
100
AcDbEntity
  8
标注
370
    -2
100
AcDbLine
 10
410.5937695585466
 20
162.9113254194082
 30
0.0
 11
410.5937695585466
 21
153.5233612955626
 31
0.0
  0
LINE
  5
1490
330
13A6
100
AcDbEntity
  8
标注
370
    -2
100
AcDbLine
 10
381.2516435742946
 20
153.8433612955626
 30
0.0
 11
394.693539899754
 21
153.8433612955626
 31
0.0
  0
LINE
  5
1491
330
13A6
100
AcDbEntity
  8
标注
370
    -2
100
AcDbLine
 10
409.9437695585467
 20
153.8433612955626
 30
0.0
 11
396.5018732330873
 21
153.8433612955626
 31
0.0
  0
SOLID
  5
1492
330
13A6
100
AcDbEntity
  8
标注
100
AcDbTrace
 10
381.2516435742946
 20
153.9516946288959
 30
0.0
 11
381.2516435742946
 21
153.7350279622293
 31
0.0
 12
380.6016435742946
 22
153.8433612955626
 32
0.0
 13
380.6016435742946
 23
153.8433612955626
 33
0.0
  0
SOLID
  5
1493
330
13A6
100
AcDbEntity
  8
标注
100
AcDbTrace
 10
409.9437695585467
 20
153.9516946288959
 30
0.0
 11
409.9437695585467
 21
153.7350279622293
 31
0.0
 12
410.5937695585466
 22
153.8433612955626
 32
0.0
 13
410.5937695585466
 23
153.8433612955626
 33
0.0
  0
MTEXT
  5
1494
330
13A6
100
AcDbEntity
  8
标注
100
AcDbMText
 10
395.5977065664206
 20
153.8433612955626
 30
0.0
 40
0.65
 41
0.0
 71
     5
 72
     1
  1
\A1;30"
 73
     1
 44
1.0
  0
POINT
  5
1495
330
13A6
100
AcDbEntity
  8
Defpoints
 62
     0
100
AcDbPoint
 10
380.6016435742946
 20
163.7913254194082
 30
0.0
  0
POINT
  5
1496
330
13A6
100
AcDbEntity
  8
Defpoints
 62
     0
100
AcDbPoint
 10
410.5937695585466
 20
163.7913254194082
 30
0.0
  0
POINT
  5
1497
330
13A6
100
AcDbEntity
  8
Defpoints
 62
     0
100
AcDbPoint
 10
410.5937695585466
 20
153.8433612955626
 30
0.0
  0
ENDBLK
  5
13B2
330
13A6
100
AcDbEntity
  8
0
100
AcDbBlockEnd
  0
BLOCK
  5
13BE
330
13B3
100
AcDbEntity
  8
0
100
AcDbBlockBegin
  2
*D119
 70
     1
 10
0.0
 20
0.0
 30
0.0
  3
*D119
  1

  0
LINE
  5
1484
330
13B3
100
AcDbEntity
  8
标注
370
    -2
100
AcDbLine
 10
406.5367616845309
 20
175.9173096713767
 30
0.0
 11
413.4459401452785
 21
175.9173096713767
 31
0.0
  0
LINE
  5
1485
330
13B3
100
AcDbEntity
  8
标注
370
    -2
100
AcDbLine
 10
406.5367616845309
 20
159.8543175453925
 30
0.0
 11
413.4459401452785
 21
159.8543175453925
 31
0.0
  0
LINE
  5
1486
330
13B3
100
AcDbEntity
  8
标注
370
    -2
100
AcDbLine
 10
413.1259401452784
 20
175.2673096713767
 30
0.0
 11
413.1259401452784
 21
169.9274802750512
 31
0.0
  0
LINE
  5
1487
330
13B3
100
AcDbEntity
  8
标注
370
    -2
100
AcDbLine
 10
413.1259401452784
 20
160.5043175453925
 30
0.0
 11
413.1259401452784
 21
165.8441469417179
 31
0.0
  0
SOLID
  5
1488
330
13B3
100
AcDbEntity
  8
标注
100
AcDbTrace
 10
413.0176068119451
 20
175.2673096713767
 30
0.0
 11
413.2342734786118
 21
175.2673096713767
 31
0.0
 12
413.1259401452784
 22
175.9173096713767
 32
0.0
 13
413.1259401452784
 23
175.9173096713767
 33
0.0
  0
SOLID
  5
1489
330
13B3
100
AcDbEntity
  8
标注
100
AcDbTrace
 10
413.0176068119451
 20
160.5043175453925
 30
0.0
 11
413.2342734786118
 21
160.5043175453925
 31
0.0
 12
413.1259401452784
 22
159.8543175453925
 32
0.0
 13
413.1259401452784
 23
159.8543175453925
 33
0.0
  0
MTEXT
  5
148A
330
13B3
100
AcDbEntity
  8
标注
100
AcDbMText
 10
413.1259401452784
 20
167.8858136083846
 30
0.0
 40
0.65
 41
0.0
 71
     5
 72
     1
  1
\A1;16 1/8"
 11
0.0000000000000001
 21
1.0
 31
0.0
 73
     1
 44
1.0
  0
POINT
  5
148B
330
13B3
100
AcDbEntity
  8
Defpoints
 62
     0
100
AcDbPoint
 10
405.6567616845309
 20
175.9173096713767
 30
0.0
  0
POINT
  5
148C
330
13B3
100
AcDbEntity
  8
Defpoints
 62
     0
100
AcDbPoint
 10
405.6567616845309
 20
159.8543175453925
 30
0.0
  0
POINT
  5
148D
330
13B3
100
AcDbEntity
  8
Defpoints
 62
     0
100
AcDbPoint
 10
413.1259401452784
 20
159.8543175453925
 30
0.0
  0
ENDBLK
  5
13BF
330
13B3
100
AcDbEntity
  8
0
100
AcDbBlockEnd
  0
BLOCK
  5
13CB
330
13C0
100
AcDbEntity
  8
0
100
AcDbBlockBegin
  2
*D120
 70
     1
 10
0.0
 20
0.0
 30
0.0
  3
*D120
  1

  0
LINE
  5
147A
330
13C0
100
AcDbEntity
  8
标注
370
    -2
100
AcDbLine
 10
406.5367616845308
 20
176.9173096713767
 30
0.0
 11
416.0618762647339
 21
176.9173096713767
 31
0.0
  0
LINE
  5
147B
330
13C0
100
AcDbEntity
  8
标注
370
    -2
100
AcDbLine
 10
406.5367616845309
 20
158.8543175453925
 30
0.0
 11
416.0618762647339
 21
158.8543175453925
 31
0.0
  0
LINE
  5
147C
330
13C0
100
AcDbEntity
  8
标注
370
    -2
100
AcDbLine
 10
415.7418762647339
 20
176.2673096713767
 30
0.0
 11
415.7418762647339
 21
169.9274802750512
 31
0.0
  0
LINE
  5
147D
330
13C0
100
AcDbEntity
  8
标注
370
    -2
100
AcDbLine
 10
415.7418762647339
 20
159.5043175453925
 30
0.0
 11
415.7418762647339
 21
165.8441469417179
 31
0.0
  0
SOLID
  5
147E
330
13C0
100
AcDbEntity
  8
标注
100
AcDbTrace
 10
415.6335429314006
 20
176.2673096713767
 30
0.0
 11
415.8502095980672
 21
176.2673096713767
 31
0.0
 12
415.7418762647339
 22
176.9173096713767
 32
0.0
 13
415.7418762647339
 23
176.9173096713767
 33
0.0
  0
SOLID
  5
147F
330
13C0
100
AcDbEntity
  8
标注
100
AcDbTrace
 10
415.6335429314006
 20
159.5043175453925
 30
0.0
 11
415.8502095980672
 21
159.5043175453925
 31
0.0
 12
415.7418762647339
 22
158.8543175453925
 32
0.0
 13
415.7418762647339
 23
158.8543175453925
 33
0.0
  0
MTEXT
  5
1480
330
13C0
100
AcDbEntity
  8
标注
100
AcDbMText
 10
415.7418762647338
 20
167.8858136083846
 30
0.0
 40
0.65
 41
0.0
 71
     5
 72
     1
  1
\A1;18 1/8"
 11
0.0000000000000001
 21
1.0
 31
0.0
 73
     1
 44
1.0
  0
POINT
  5
1481
330
13C0
100
AcDbEntity
  8
Defpoints
 62
     0
100
AcDbPoint
 10
405.6567616845308
 20
176.9173096713767
 30
0.0
  0
POINT
  5
1482
330
13C0
100
AcDbEntity
  8
Defpoints
 62
     0
100
AcDbPoint
 10
405.6567616845309
 20
158.8543175453925
 30
0.0
  0
POINT
  5
1483
330
13C0
100
AcDbEntity
  8
Defpoints
 62
     0
100
AcDbPoint
 10
415.7418762647339
 20
158.8543175453925
 30
0.0
  0
ENDBLK
  5
13CC
330
13C0
100
AcDbEntity
  8
0
100
AcDbBlockEnd
  0
BLOCK
  5
13D8
330
13CD
100
AcDbEntity
  8
0
100
AcDbBlockBegin
  2
*D121
 70
     1
 10
0.0
 20
0.0
 30
0.0
  3
*D121
  1

  0
LINE
  5
1470
330
13CD
100
AcDbEntity
  8
标注
370
    -2
100
AcDbLine
 10
411.9768312608035
 20
195.4814486500819
 30
0.0
 11
413.9528431756585
 21
195.4814486500819
 31
0.0
  0
LINE
  5
1471
330
13CD
100
AcDbEntity
  8
标注
370
    -2
100
AcDbLine
 10
403.7369493297014
 20
186.4814486500874
 30
0.0
 11
413.9528431756585
 21
186.4814486500874
 31
0.0
  0
LINE
  5
1472
330
13CD
100
AcDbEntity
  8
标注
370
    -2
100
AcDbLine
 10
413.6328431756585
 20
194.8314486500819
 30
0.0
 11
413.6328431756585
 21
191.614781983418
 31
0.0
  0
LINE
  5
1473
330
13CD
100
AcDbEntity
  8
标注
370
    -2
100
AcDbLine
 10
413.6328431756585
 20
187.1314486500874
 30
0.0
 11
413.6328431756585
 21
190.3481153167513
 31
0.0
  0
SOLID
  5
1474
330
13CD
100
AcDbEntity
  8
标注
100
AcDbTrace
 10
413.5245098423252
 20
194.8314486500819
 30
0.0
 11
413.7411765089918
 21
194.8314486500819
 31
0.0
 12
413.6328431756585
 22
195.4814486500819
 32
0.0
 13
413.6328431756585
 23
195.4814486500819
 33
0.0
  0
SOLID
  5
1475
330
13CD
100
AcDbEntity
  8
标注
100
AcDbTrace
 10
413.5245098423252
 20
187.1314486500874
 30
0.0
 11
413.7411765089918
 21
187.1314486500874
 31
0.0
 12
413.6328431756585
 22
186.4814486500874
 32
0.0
 13
413.6328431756585
 23
186.4814486500874
 33
0.0
  0
MTEXT
  5
1476
330
13CD
100
AcDbEntity
  8
标注
100
AcDbMText
 10
413.6328431756584
 20
190.9814486500847
 30
0.0
 40
0.65
 41
0.0
 71
     5
 72
     1
  1
\A1;9"
 11
0.0000000000000001
 21
1.0
 31
0.0
 73
     1
 44
1.0
  0
POINT
  5
1477
330
13CD
100
AcDbEntity
  8
Defpoints
 62
     0
100
AcDbPoint
 10
411.0968312608036
 20
195.4814486500819
 30
0.0
  0
POINT
  5
1478
330
13CD
100
AcDbEntity
  8
Defpoints
 62
     0
100
AcDbPoint
 10
402.8569493297014
 20
186.4814486500874
 30
0.0
  0
POINT
  5
1479
330
13CD
100
AcDbEntity
  8
Defpoints
 62
     0
100
AcDbPoint
 10
413.6328431756585
 20
186.4814486500874
 30
0.0
  0
ENDBLK
  5
13D9
330
13CD
100
AcDbEntity
  8
0
100
AcDbBlockEnd
  0
BLOCK
  5
14B5
330
14AF
100
AcDbEntity
  8
0
100
AcDbBlockBegin
  2
*D123
 70
     1
 10
0.0
 20
0.0
 30
0.0
  3
*D123
  1

  0
LINE
  5
14E4
330
14AF
100
AcDbEntity
  8
标注
370
    -2
100
AcDbLine
 10
383.5788729189295
 20
173.7446936595611
 30
0.0
 11
383.0958041891583
 21
174.1796012386135
 31
0.0
  0
MTEXT
  5
14E5
330
14AF
100
AcDbEntity
  8
标注
100
AcDbMText
 10
385.2572270954425
 20
172.2336686092637
 30
0.0
 40
0.65
 41
0.0
 71
     5
 72
     1
  1
\A1;R3 7/8"
 11
0.7431826611865253
 21
-0.6690885831575027
 31
0.0
 73
     1
 44
1.0
  0
SOLID
  5
14E6
330
14AF
100
AcDbEntity
  8
标注
100
AcDbTrace
 10
383.1682887856671
 20
174.2601126935754
 30
0.0
 11
383.0233195926496
 21
174.0990897836516
 31
0.0
 12
382.612735459387
 22
174.6145088176659
 32
0.0
 13
382.612735459387
 23
174.6145088176659
 33
0.0
  0
POINT
  5
14E7
330
14AF
100
AcDbEntity
  8
Defpoints
 62
     0
100
AcDbPoint
 10
382.612735459387
 20
174.6145088176659
 30
0.0
  0
POINT
  5
14E8
330
14AF
100
AcDbEntity
  8
Defpoints
 62
     0
100
AcDbPoint
 10
385.5386514483104
 20
171.9803017973608
 30
0.0
  0
ENDBLK
  5
14B6
330
14AF
100
AcDbEntity
  8
0
100
AcDbBlockEnd
  0
BLOCK
  5
14C5
330
14BF
100
AcDbEntity
  8
0
100
AcDbBlockBegin
  2
*D124
 70
     1
 10
0.0
 20
0.0
 30
0.0
  3
*D124
  1

  0
LINE
  5
14C8
330
14BF
100
AcDbEntity
  8
标注
370
    -2
100
AcDbLine
 10
383.8126190839281
 20
188.2322965070882
 30
0.0
 11
383.315773496426
 21
187.8131969220494
 31
0.0
  0
MTEXT
  5
14C9
330
14BF
100
AcDbEntity
  8
标注
100
AcDbMText
 10
384.5451478347324
 20
188.8501997414403
 30
0.0
 40
0.65
 41
0.0
 71
     5
 72
     1
  1
\A1;R2"
 11
0.7643778269262404
 21
0.6447685923674622
 31
0.0
 73
     1
 44
1.0
  0
SOLID
  5
14CA
330
14BF
100
AcDbEntity
  8
标注
100
AcDbTrace
 10
383.2459235655861
 20
187.8960045199663
 30
0.0
 11
383.3856234272658
 21
187.7303893241323
 31
0.0
 12
382.818927908924
 22
187.3940973370105
 32
0.0
 13
382.818927908924
 23
187.3940973370105
 33
0.0
  0
POINT
  5
14CB
330
14BF
100
AcDbEntity
  8
Defpoints
 62
     0
100
AcDbPoint
 10
382.818927908924
 20
187.3940973370105
 30
0.0
  0
POINT
  5
14CC
330
14BF
100
AcDbEntity
  8
Defpoints
 62
     0
100
AcDbPoint
 10
384.3236086705899
 20
188.663326849545
 30
0.0
  0
ENDBLK
  5
14C6
330
14BF
100
AcDbEntity
  8
0
100
AcDbBlockEnd
  0
BLOCK
  5
14F6
330
14F5
100
AcDbEntity
  8
0
100
AcDbBlockBegin
  2
*D127
 70
     1
 10
0.0
 20
0.0
 30
0.0
  3
*D127
  1

  0
LINE
  5
14F7
330
14F5
100
AcDbEntity
  8
标注
370
    -2
100
AcDbLine
 10
381.6016435742947
 20
162.9113254194082
 30
0.0
 11
381.6016435742947
 21
155.900452190625
 31
0.0
  0
LINE
  5
14F8
330
14F5
100
AcDbEntity
  8
标注
370
    -2
100
AcDbLine
 10
409.5937695585466
 20
162.9113254194082
 30
0.0
 11
409.5937695585466
 21
155.900452190625
 31
0.0
  0
LINE
  5
14F9
330
14F5
100
AcDbEntity
  8
标注
370
    -2
100
AcDbLine
 10
382.2516435742947
 20
156.220452190625
 30
0.0
 11
394.6393732330874
 21
156.220452190625
 31
0.0
  0
LINE
  5
14FA
330
14F5
100
AcDbEntity
  8
标注
370
    -2
100
AcDbLine
 10
408.9437695585466
 20
156.220452190625
 30
0.0
 11
396.556039899754
 21
156.220452190625
 31
0.0
  0
SOLID
  5
14FB
330
14F5
100
AcDbEntity
  8
标注
100
AcDbTrace
 10
382.2516435742947
 20
156.3287855239583
 30
0.0
 11
382.2516435742947
 21
156.1121188572917
 31
0.0
 12
381.6016435742947
 22
156.220452190625
 32
0.0
 13
381.6016435742947
 23
156.220452190625
 33
0.0
  0
SOLID
  5
14FC
330
14F5
100
AcDbEntity
  8
标注
100
AcDbTrace
 10
408.9437695585466
 20
156.3287855239583
 30
0.0
 11
408.9437695585466
 21
156.1121188572917
 31
0.0
 12
409.5937695585466
 22
156.220452190625
 32
0.0
 13
409.5937695585466
 23
156.220452190625
 33
0.0
  0
MTEXT
  5
14FD
330
14F5
100
AcDbEntity
  8
标注
100
AcDbMText
 10
395.5977065664207
 20
156.220452190625
 30
0.0
 40
0.65
 41
0.0
 71
     5
 72
     1
  1
\A1;28"
 73
     1
 44
1.0
  0
POINT
  5
14FE
330
14F5
100
AcDbEntity
  8
Defpoints
 62
     0
100
AcDbPoint
 10
381.6016435742947
 20
163.7913254194082
 30
0.0
  0
POINT
  5
14FF
330
14F5
100
AcDbEntity
  8
Defpoints
 62
     0
100
AcDbPoint
 10
409.5937695585466
 20
163.7913254194082
 30
0.0
  0
POINT
  5
1500
330
14F5
100
AcDbEntity
  8
Defpoints
 62
     0
100
AcDbPoint
 10
409.5937695585466
 20
156.220452190625
 30
0.0
  0
ENDBLK
  5
1501
330
14F5
100
AcDbEntity
  8
0
100
AcDbBlockEnd
  0
BLOCK
  5
1503
330
1502
100
AcDbEntity
  8
0
100
AcDbBlockBegin
  2
*D128
 70
     1
 10
0.0
 20
0.0
 30
0.0
  3
*D128
  1

  0
LINE
  5
1504
330
1502
100
AcDbEntity
  8
标注
370
    -2
100
AcDbLine
 10
380.6016435742946
 20
162.9113254194082
 30
0.0
 11
380.6016435742946
 21
153.5233612955626
 31
0.0
  0
LINE
  5
1505
330
1502
100
AcDbEntity
  8
标注
370
    -2
100
AcDbLine
 10
410.5937695585466
 20
162.9113254194082
 30
0.0
 11
410.5937695585466
 21
153.5233612955626
 31
0.0
  0
LINE
  5
1506
330
1502
100
AcDbEntity
  8
标注
370
    -2
100
AcDbLine
 10
381.2516435742946
 20
153.8433612955626
 30
0.0
 11
394.693539899754
 21
153.8433612955626
 31
0.0
  0
LINE
  5
1507
330
1502
100
AcDbEntity
  8
标注
370
    -2
100
AcDbLine
 10
409.9437695585467
 20
153.8433612955626
 30
0.0
 11
396.5018732330873
 21
153.8433612955626
 31
0.0
  0
SOLID
  5
1508
330
1502
100
AcDbEntity
  8
标注
100
AcDbTrace
 10
381.2516435742946
 20
153.9516946288959
 30
0.0
 11
381.2516435742946
 21
153.7350279622293
 31
0.0
 12
380.6016435742946
 22
153.8433612955626
 32
0.0
 13
380.6016435742946
 23
153.8433612955626
 33
0.0
  0
SOLID
  5
1509
330
1502
100
AcDbEntity
  8
标注
100
AcDbTrace
 10
409.9437695585467
 20
153.9516946288959
 30
0.0
 11
409.9437695585467
 21
153.7350279622293
 31
0.0
 12
410.5937695585466
 22
153.8433612955626
 32
0.0
 13
410.5937695585466
 23
153.8433612955626
 33
0.0
  0
MTEXT
  5
150A
330
1502
100
AcDbEntity
  8
标注
100
AcDbMText
 10
395.5977065664206
 20
153.8433612955626
 30
0.0
 40
0.65
 41
0.0
 71
     5
 72
     1
  1
\A1;30"
 73
     1
 44
1.0
  0
POINT
  5
150B
330
1502
100
AcDbEntity
  8
Defpoints
 62
     0
100
AcDbPoint
 10
380.6016435742946
 20
163.7913254194082
 30
0.0
  0
POINT
  5
150C
330
1502
100
AcDbEntity
  8
Defpoints
 62
     0
100
AcDbPoint
 10
410.5937695585466
 20
163.7913254194082
 30
0.0
  0
POINT
  5
150D
330
1502
100
AcDbEntity
  8
Defpoints
 62
     0
100
AcDbPoint
 10
410.5937695585466
 20
153.8433612955626
 30
0.0
  0
ENDBLK
  5
150E
330
1502
100
AcDbEntity
  8
0
100
AcDbBlockEnd
  0
BLOCK
  5
1510
330
150F
100
AcDbEntity
  8
0
100
AcDbBlockBegin
  2
*D129
 70
     1
 10
0.0
 20
0.0
 30
0.0
  3
*D129
  1

  0
LINE
  5
1511
330
150F
100
AcDbEntity
  8
标注
370
    -2
100
AcDbLine
 10
406.5367616845309
 20
175.9173096713767
 30
0.0
 11
413.4459401452785
 21
175.9173096713767
 31
0.0
  0
LINE
  5
1512
330
150F
100
AcDbEntity
  8
标注
370
    -2
100
AcDbLine
 10
406.5367616845309
 20
159.8543175453925
 30
0.0
 11
413.4459401452785
 21
159.8543175453925
 31
0.0
  0
LINE
  5
1513
330
150F
100
AcDbEntity
  8
标注
370
    -2
100
AcDbLine
 10
413.1259401452784
 20
175.2673096713767
 30
0.0
 11
413.1259401452784
 21
169.9274802750512
 31
0.0
  0
LINE
  5
1514
330
150F
100
AcDbEntity
  8
标注
370
    -2
100
AcDbLine
 10
413.1259401452784
 20
160.5043175453925
 30
0.0
 11
413.1259401452784
 21
165.8441469417179
 31
0.0
  0
SOLID
  5
1515
330
150F
100
AcDbEntity
  8
标注
100
AcDbTrace
 10
413.0176068119451
 20
175.2673096713767
 30
0.0
 11
413.2342734786118
 21
175.2673096713767
 31
0.0
 12
413.1259401452784
 22
175.9173096713767
 32
0.0
 13
413.1259401452784
 23
175.9173096713767
 33
0.0
  0
SOLID
  5
1516
330
150F
100
AcDbEntity
  8
标注
100
AcDbTrace
 10
413.0176068119451
 20
160.5043175453925
 30
0.0
 11
413.2342734786118
 21
160.5043175453925
 31
0.0
 12
413.1259401452784
 22
159.8543175453925
 32
0.0
 13
413.1259401452784
 23
159.8543175453925
 33
0.0
  0
MTEXT
  5
1517
330
150F
100
AcDbEntity
  8
标注
100
AcDbMText
 10
413.1259401452784
 20
167.8858136083846
 30
0.0
 40
0.65
 41
0.0
 71
     5
 72
     1
  1
\A1;16 1/8"
 11
0.0000000000000001
 21
1.0
 31
0.0
 73
     1
 44
1.0
  0
POINT
  5
1518
330
150F
100
AcDbEntity
  8
Defpoints
 62
     0
100
AcDbPoint
 10
405.6567616845309
 20
175.9173096713767
 30
0.0
  0
POINT
  5
1519
330
150F
100
AcDbEntity
  8
Defpoints
 62
     0
100
AcDbPoint
 10
405.6567616845309
 20
159.8543175453925
 30
0.0
  0
POINT
  5
151A
330
150F
100
AcDbEntity
  8
Defpoints
 62
     0
100
AcDbPoint
 10
413.1259401452784
 20
159.8543175453925
 30
0.0
  0
ENDBLK
  5
151B
330
150F
100
AcDbEntity
  8
0
100
AcDbBlockEnd
  0
BLOCK
  5
151D
330
151C
100
AcDbEntity
  8
0
100
AcDbBlockBegin
  2
*D130
 70
     1
 10
0.0
 20
0.0
 30
0.0
  3
*D130
  1

  0
LINE
  5
151E
330
151C
100
AcDbEntity
  8
标注
370
    -2
100
AcDbLine
 10
406.5367616845308
 20
176.9173096713767
 30
0.0
 11
416.0618762647339
 21
176.9173096713767
 31
0.0
  0
LINE
  5
151F
330
151C
100
AcDbEntity
  8
标注
370
    -2
100
AcDbLine
 10
406.5367616845309
 20
158.8543175453925
 30
0.0
 11
416.0618762647339
 21
158.8543175453925
 31
0.0
  0
LINE
  5
1520
330
151C
100
AcDbEntity
  8
标注
370
    -2
100
AcDbLine
 10
415.7418762647339
 20
176.2673096713767
 30
0.0
 11
415.7418762647339
 21
169.9274802750512
 31
0.0
  0
LINE
  5
1521
330
151C
100
AcDbEntity
  8
标注
370
    -2
100
AcDbLine
 10
415.7418762647339
 20
159.5043175453925
 30
0.0
 11
415.7418762647339
 21
165.8441469417179
 31
0.0
  0
SOLID
  5
1522
330
151C
100
AcDbEntity
  8
标注
100
AcDbTrace
 10
415.6335429314006
 20
176.2673096713767
 30
0.0
 11
415.8502095980672
 21
176.2673096713767
 31
0.0
 12
415.7418762647339
 22
176.9173096713767
 32
0.0
 13
415.7418762647339
 23
176.9173096713767
 33
0.0
  0
SOLID
  5
1523
330
151C
100
AcDbEntity
  8
标注
100
AcDbTrace
 10
415.6335429314006
 20
159.5043175453925
 30
0.0
 11
415.8502095980672
 21
159.5043175453925
 31
0.0
 12
415.7418762647339
 22
158.8543175453925
 32
0.0
 13
415.7418762647339
 23
158.8543175453925
 33
0.0
  0
MTEXT
  5
1524
330
151C
100
AcDbEntity
  8
标注
100
AcDbMText
 10
415.7418762647338
 20
167.8858136083846
 30
0.0
 40
0.65
 41
0.0
 71
     5
 72
     1
  1
\A1;18 1/8"
 11
0.0000000000000001
 21
1.0
 31
0.0
 73
     1
 44
1.0
  0
POINT
  5
1525
330
151C
100
AcDbEntity
  8
Defpoints
 62
     0
100
AcDbPoint
 10
405.6567616845308
 20
176.9173096713767
 30
0.0
  0
POINT
  5
1526
330
151C
100
AcDbEntity
  8
Defpoints
 62
     0
100
AcDbPoint
 10
405.6567616845309
 20
158.8543175453925
 30
0.0
  0
POINT
  5
1527
330
151C
100
AcDbEntity
  8
Defpoints
 62
     0
100
AcDbPoint
 10
415.7418762647339
 20
158.8543175453925
 30
0.0
  0
ENDBLK
  5
1528
330
151C
100
AcDbEntity
  8
0
100
AcDbBlockEnd
  0
BLOCK
  5
152A
330
1529
100
AcDbEntity
  8
0
100
AcDbBlockBegin
  2
*D131
 70
     1
 10
0.0
 20
0.0
 30
0.0
  3
*D131
  1

  0
LINE
  5
152B
330
1529
100
AcDbEntity
  8
标注
370
    -2
100
AcDbLine
 10
383.5788729189295
 20
173.7446936595611
 30
0.0
 11
383.0958041891583
 21
174.1796012386135
 31
0.0
  0
MTEXT
  5
152C
330
1529
100
AcDbEntity
  8
标注
100
AcDbMText
 10
385.2572270954425
 20
172.2336686092637
 30
0.0
 40
0.65
 41
0.0
 71
     5
 72
     1
  1
\A1;R3 7/8"
 11
0.7431826611865253
 21
-0.6690885831575027
 31
0.0
 73
     1
 44
1.0
  0
SOLID
  5
152D
330
1529
100
AcDbEntity
  8
标注
100
AcDbTrace
 10
383.1682887856671
 20
174.2601126935754
 30
0.0
 11
383.0233195926496
 21
174.0990897836516
 31
0.0
 12
382.612735459387
 22
174.6145088176659
 32
0.0
 13
382.612735459387
 23
174.6145088176659
 33
0.0
  0
POINT
  5
152E
330
1529
100
AcDbEntity
  8
Defpoints
 62
     0
100
AcDbPoint
 10
382.612735459387
 20
174.6145088176659
 30
0.0
  0
POINT
  5
152F
330
1529
100
AcDbEntity
  8
Defpoints
 62
     0
100
AcDbPoint
 10
385.5386514483104
 20
171.9803017973608
 30
0.0
  0
ENDBLK
  5
1530
330
1529
100
AcDbEntity
  8
0
100
AcDbBlockEnd
  0
BLOCK
  5
156C
330
1561
100
AcDbEntity
  8
0
100
AcDbBlockBegin
  2
*D133
 70
     1
 10
0.0
 20
0.0
 30
0.0
  3
*D133
  1

  0
LINE
  5
1562
330
1561
100
AcDbEntity
  8
标注
370
    -2
100
AcDbLine
 10
380.0985818720368
 20
127.0986552022693
 30
0.0
 11
380.0985818720368
 21
117.7106910784237
 31
0.0
  0
LINE
  5
1563
330
1561
100
AcDbEntity
  8
标注
370
    -2
100
AcDbLine
 10
410.0907078562888
 20
127.0986552022693
 30
0.0
 11
410.0907078562888
 21
117.7106910784237
 31
0.0
  0
LINE
  5
1564
330
1561
100
AcDbEntity
  8
标注
370
    -2
100
AcDbLine
 10
380.7485818720368
 20
118.0306910784237
 30
0.0
 11
394.1904781974962
 21
118.0306910784237
 31
0.0
  0
LINE
  5
1565
330
1561
100
AcDbEntity
  8
标注
370
    -2
100
AcDbLine
 10
409.4407078562888
 20
118.0306910784237
 30
0.0
 11
395.9988115308295
 21
118.0306910784237
 31
0.0
  0
SOLID
  5
1566
330
1561
100
AcDbEntity
  8
标注
100
AcDbTrace
 10
380.7485818720368
 20
118.139024411757
 30
0.0
 11
380.7485818720368
 21
117.9223577450903
 31
0.0
 12
380.0985818720368
 22
118.0306910784237
 32
0.0
 13
380.0985818720368
 23
118.0306910784237
 33
0.0
  0
SOLID
  5
1567
330
1561
100
AcDbEntity
  8
标注
100
AcDbTrace
 10
409.4407078562888
 20
118.139024411757
 30
0.0
 11
409.4407078562888
 21
117.9223577450903
 31
0.0
 12
410.0907078562888
 22
118.0306910784237
 32
0.0
 13
410.0907078562888
 23
118.0306910784237
 33
0.0
  0
MTEXT
  5
1568
330
1561
100
AcDbEntity
  8
标注
100
AcDbMText
 10
395.0946448641628
 20
118.0306910784237
 30
0.0
 40
0.65
 41
0.0
 71
     5
 72
     1
  1
\A1;30"
 73
     1
 44
1.0
  0
POINT
  5
1569
330
1561
100
AcDbEntity
  8
Defpoints
 62
     0
100
AcDbPoint
 10
380.0985818720368
 20
127.9786552022693
 30
0.0
  0
POINT
  5
156A
330
1561
100
AcDbEntity
  8
Defpoints
 62
     0
100
AcDbPoint
 10
410.0907078562888
 20
127.9786552022693
 30
0.0
  0
POINT
  5
156B
330
1561
100
AcDbEntity
  8
Defpoints
 62
     0
100
AcDbPoint
 10
410.0907078562888
 20
118.0306910784237
 30
0.0
  0
ENDBLK
  5
156D
330
1561
100
AcDbEntity
  8
0
100
AcDbBlockEnd
  0
BLOCK
  5
1579
330
156E
100
AcDbEntity
  8
0
100
AcDbBlockBegin
  2
*D134
 70
     1
 10
0.0
 20
0.0
 30
0.0
  3
*D134
  1

  0
LINE
  5
156F
330
156E
100
AcDbEntity
  8
标注
370
    -2
100
AcDbLine
 10
381.0985818720369
 20
127.0986552022693
 30
0.0
 11
381.0985818720369
 21
120.0877819734861
 31
0.0
  0
LINE
  5
1570
330
156E
100
AcDbEntity
  8
标注
370
    -2
100
AcDbLine
 10
409.0907078562889
 20
127.0986552022693
 30
0.0
 11
409.0907078562889
 21
120.0877819734861
 31
0.0
  0
LINE
  5
1571
330
156E
100
AcDbEntity
  8
标注
370
    -2
100
AcDbLine
 10
381.7485818720369
 20
120.4077819734861
 30
0.0
 11
394.1363115308296
 21
120.4077819734861
 31
0.0
  0
LINE
  5
1572
330
156E
100
AcDbEntity
  8
标注
370
    -2
100
AcDbLine
 10
408.4407078562889
 20
120.4077819734861
 30
0.0
 11
396.0529781974962
 21
120.4077819734861
 31
0.0
  0
SOLID
  5
1573
330
156E
100
AcDbEntity
  8
标注
100
AcDbTrace
 10
381.7485818720369
 20
120.5161153068194
 30
0.0
 11
381.7485818720369
 21
120.2994486401528
 31
0.0
 12
381.0985818720369
 22
120.4077819734861
 32
0.0
 13
381.0985818720369
 23
120.4077819734861
 33
0.0
  0
SOLID
  5
1574
330
156E
100
AcDbEntity
  8
标注
100
AcDbTrace
 10
408.4407078562889
 20
120.5161153068194
 30
0.0
 11
408.4407078562889
 21
120.2994486401528
 31
0.0
 12
409.0907078562889
 22
120.4077819734861
 32
0.0
 13
409.0907078562889
 23
120.4077819734861
 33
0.0
  0
MTEXT
  5
1575
330
156E
100
AcDbEntity
  8
标注
100
AcDbMText
 10
395.0946448641629
 20
120.4077819734861
 30
0.0
 40
0.65
 41
0.0
 71
     5
 72
     1
  1
\A1;28"
 73
     1
 44
1.0
  0
POINT
  5
1576
330
156E
100
AcDbEntity
  8
Defpoints
 62
     0
100
AcDbPoint
 10
381.0985818720369
 20
127.9786552022693
 30
0.0
  0
POINT
  5
1577
330
156E
100
AcDbEntity
  8
Defpoints
 62
     0
100
AcDbPoint
 10
409.0907078562889
 20
127.9786552022693
 30
0.0
  0
POINT
  5
1578
330
156E
100
AcDbEntity
  8
Defpoints
 62
     0
100
AcDbPoint
 10
409.0907078562889
 20
120.4077819734861
 30
0.0
  0
ENDBLK
  5
157A
330
156E
100
AcDbEntity
  8
0
100
AcDbBlockEnd
  0
BLOCK
  5
1581
330
157B
100
AcDbEntity
  8
0
100
AcDbBlockBegin
  2
*D135
 70
     1
 10
0.0
 20
0.0
 30
0.0
  3
*D135
  1

  0
LINE
  5
159D
330
157B
100
AcDbEntity
  8
标注
370
    -2
100
AcDbLine
 10
383.0758112166719
 20
137.9320234424223
 30
0.0
 11
382.5927424869007
 21
138.3669310214747
 31
0.0
  0
MTEXT
  5
159E
330
157B
100
AcDbEntity
  8
标注
100
AcDbMText
 10
384.7541653931848
 20
136.420998392125
 30
0.0
 40
0.65
 41
0.0
 71
     5
 72
     1
  1
\A1;R3 7/8"
 11
0.743182661186539
 21
-0.6690885831574875
 31
0.0
 73
     1
 44
1.0
  0
SOLID
  5
159F
330
157B
100
AcDbEntity
  8
标注
100
AcDbTrace
 10
382.6652270834094
 20
138.4474424764366
 30
0.0
 11
382.5202578903919
 21
138.2864195665128
 31
0.0
 12
382.1096737571293
 22
138.8018386005271
 32
0.0
 13
382.1096737571293
 23
138.8018386005271
 33
0.0
  0
POINT
  5
15A0
330
157B
100
AcDbEntity
  8
Defpoints
 62
     0
100
AcDbPoint
 10
382.1096737571293
 20
138.8018386005271
 30
0.0
  0
POINT
  5
15A1
330
157B
100
AcDbEntity
  8
Defpoints
 62
     0
100
AcDbPoint
 10
385.0355897460527
 20
136.1676315802221
 30
0.0
  0
ENDBLK
  5
1582
330
157B
100
AcDbEntity
  8
0
100
AcDbBlockEnd
  0
BLOCK
  5
158E
330
1583
100
AcDbEntity
  8
0
100
AcDbBlockBegin
  2
*D136
 70
     1
 10
0.0
 20
0.0
 30
0.0
  3
*D136
  1

  0
LINE
  5
1584
330
1583
100
AcDbEntity
  8
标注
370
    -2
100
AcDbLine
 10
406.0336999822729
 20
141.1046394542378
 30
0.0
 11
415.5588145624761
 21
141.1046394542378
 31
0.0
  0
LINE
  5
1585
330
1583
100
AcDbEntity
  8
标注
370
    -2
100
AcDbLine
 10
406.033699982273
 20
123.0416473282535
 30
0.0
 11
415.558814562476
 21
123.0416473282535
 31
0.0
  0
LINE
  5
1586
330
1583
100
AcDbEntity
  8
标注
370
    -2
100
AcDbLine
 10
415.2388145624762
 20
140.4546394542378
 30
0.0
 11
415.2388145624762
 21
134.1148100579123
 31
0.0
  0
LINE
  5
1587
330
1583
100
AcDbEntity
  8
标注
370
    -2
100
AcDbLine
 10
415.2388145624761
 20
123.6916473282535
 30
0.0
 11
415.2388145624762
 21
130.031476724579
 31
0.0
  0
SOLID
  5
1588
330
1583
100
AcDbEntity
  8
标注
100
AcDbTrace
 10
415.1304812291428
 20
140.4546394542378
 30
0.0
 11
415.3471478958095
 21
140.4546394542378
 31
0.0
 12
415.2388145624762
 22
141.1046394542378
 32
0.0
 13
415.2388145624762
 23
141.1046394542378
 33
0.0
  0
SOLID
  5
1589
330
1583
100
AcDbEntity
  8
标注
100
AcDbTrace
 10
415.1304812291427
 20
123.6916473282535
 30
0.0
 11
415.3471478958095
 21
123.6916473282535
 31
0.0
 12
415.2388145624761
 22
123.0416473282535
 32
0.0
 13
415.2388145624761
 23
123.0416473282535
 33
0.0
  0
MTEXT
  5
158A
330
1583
100
AcDbEntity
  8
标注
100
AcDbMText
 10
415.2388145624761
 20
132.0731433912457
 30
0.0
 40
0.65
 41
0.0
 71
     5
 72
     1
  1
\A1;18 1/8"
 11
0.0000000000000001
 21
1.0
 31
0.0
 73
     1
 44
1.0
  0
POINT
  5
158B
330
1583
100
AcDbEntity
  8
Defpoints
 62
     0
100
AcDbPoint
 10
405.1536999822729
 20
141.1046394542378
 30
0.0
  0
POINT
  5
158C
330
1583
100
AcDbEntity
  8
Defpoints
 62
     0
100
AcDbPoint
 10
405.153699982273
 20
123.0416473282535
 30
0.0
  0
POINT
  5
158D
330
1583
100
AcDbEntity
  8
Defpoints
 62
     0
100
AcDbPoint
 10
415.2388145624761
 20
123.0416473282535
 30
0.0
  0
ENDBLK
  5
158F
330
1583
100
AcDbEntity
  8
0
100
AcDbBlockEnd
  0
BLOCK
  5
159B
330
1590
100
AcDbEntity
  8
0
100
AcDbBlockBegin
  2
*D137
 70
     1
 10
0.0
 20
0.0
 30
0.0
  3
*D137
  1

  0
LINE
  5
1591
330
1590
100
AcDbEntity
  8
标注
370
    -2
100
AcDbLine
 10
406.033699982273
 20
140.1046394542378
 30
0.0
 11
412.9428784430207
 21
140.1046394542378
 31
0.0
  0
LINE
  5
1592
330
1590
100
AcDbEntity
  8
标注
370
    -2
100
AcDbLine
 10
406.033699982273
 20
124.0416473282535
 30
0.0
 11
412.9428784430206
 21
124.0416473282535
 31
0.0
  0
LINE
  5
1593
330
1590
100
AcDbEntity
  8
标注
370
    -2
100
AcDbLine
 10
412.6228784430207
 20
139.4546394542378
 30
0.0
 11
412.6228784430207
 21
134.1148100579123
 31
0.0
  0
LINE
  5
1594
330
1590
100
AcDbEntity
  8
标注
370
    -2
100
AcDbLine
 10
412.6228784430207
 20
124.6916473282535
 30
0.0
 11
412.6228784430207
 21
130.031476724579
 31
0.0
  0
SOLID
  5
1595
330
1590
100
AcDbEntity
  8
标注
100
AcDbTrace
 10
412.5145451096874
 20
139.4546394542378
 30
0.0
 11
412.7312117763541
 21
139.4546394542378
 31
0.0
 12
412.6228784430207
 22
140.1046394542378
 32
0.0
 13
412.6228784430207
 23
140.1046394542378
 33
0.0
  0
SOLID
  5
1596
330
1590
100
AcDbEntity
  8
标注
100
AcDbTrace
 10
412.5145451096873
 20
124.6916473282535
 30
0.0
 11
412.731211776354
 21
124.6916473282535
 31
0.0
 12
412.6228784430207
 22
124.0416473282535
 32
0.0
 13
412.6228784430207
 23
124.0416473282535
 33
0.0
  0
MTEXT
  5
1597
330
1590
100
AcDbEntity
  8
标注
100
AcDbMText
 10
412.6228784430207
 20
132.0731433912457
 30
0.0
 40
0.65
 41
0.0
 71
     5
 72
     1
  1
\A1;16 1/8"
 11
0.0000000000000001
 21
1.0
 31
0.0
 73
     1
 44
1.0
  0
POINT
  5
1598
330
1590
100
AcDbEntity
  8
Defpoints
 62
     0
100
AcDbPoint
 10
405.153699982273
 20
140.1046394542378
 30
0.0
  0
POINT
  5
1599
330
1590
100
AcDbEntity
  8
Defpoints
 62
     0
100
AcDbPoint
 10
405.153699982273
 20
124.0416473282535
 30
0.0
  0
POINT
  5
159A
330
1590
100
AcDbEntity
  8
Defpoints
 62
     0
100
AcDbPoint
 10
412.6228784430207
 20
124.0416473282535
 30
0.0
  0
ENDBLK
  5
159C
330
1590
100
AcDbEntity
  8
0
100
AcDbBlockEnd
  0
ENDSEC
  0
SECTION
  2
ENTITIES
  0
LWPOLYLINE
  5
1372
102
{ACAD_REACTORS
330
1389
330
138F
330
14BD
102
}
330
21
100
AcDbEntity
  8
0
100
AcDbPolyline
 90
        8
 70
     1
 43
0.0
 10
385.5386514483105
 20
175.9173096713767
 10
405.6567616845309
 20
175.9173096713767
 42
-0.4142135623730951
 10
409.5937695585466
 20
171.9803017973609
 10
409.5937695585466
 20
163.7913254194082
 42
-0.4142135623730951
 10
405.6567616845309
 20
159.8543175453925
 10
385.5386514483105
 20
159.8543175453925
 42
-0.4142135623730951
 10
381.6016435742947
 20
163.7913254194082
 10
381.6016435742947
 20
171.9803017973609
 42
-0.4142135623730951
  0
LWPOLYLINE
  5
1373
102
{ACAD_REACTORS
330
138C
330
1392
102
}
330
21
100
AcDbEntity
  8
0
100
AcDbPolyline
 90
        8
 70
     1
 43
0.0
 10
385.5386514483105
 20
176.9173096713767
 10
405.6567616845309
 20
176.9173096713767
 42
-0.4142135623730951
 10
410.5937695585464
 20
171.9803017973609
 10
410.5937695585466
 20
163.7913254194082
 42
-0.4142135623730951
 10
405.6567616845309
 20
158.8543175453925
 10
385.5386514483105
 20
158.8543175453925
 42
-0.4142135623730958
 10
380.6016435742946
 20
163.7913254194082
 10
380.6016435742946
 20
171.9803017973609
 42
-0.4142135623730951
  0
LINE
  5
1374
330
21
100
AcDbEntity
  8
截面层
100
AcDbLine
 10
381.1047052765517
 20
195.481448650082
 30
0.0
 11
381.9078548828511
 21
195.481448650082
 31
0.0
  0
LINE
  5
1375
330
21
100
AcDbEntity
  8
截面层
100
AcDbLine
 10
382.1047052765518
 20
195.2845982563811
 30
0.0
 11
382.1047052765518
 21
194.3554643981135
 31
0.0
  0
LINE
  5
1376
330
21
100
AcDbEntity
  8
截面层
100
AcDbLine
 10
410.0968312608034
 20
195.2845982563811
 30
0.0
 11
410.0968312608034
 21
194.3554643981135
 31
0.0
  0
ARC
  5
1377
330
21
100
AcDbEntity
  8
截面层
100
AcDbCircle
 10
396.0470863569547
 20
499.6473193620198
 30
0.0
 40
313.1733938839737
100
AcDbArc
 50
267.8411011575733
 51
269.6028573157772
  0
LINE
  5
1378
330
21
100
AcDbEntity
  8
截面层
100
AcDbLine
 10
382.1047052765518
 20
194.3554643981135
 30
0.0
 11
382.3569783131454
 21
188.5774619137863
 31
0.0
  0
LINE
  5
1379
330
21
100
AcDbEntity
  8
截面层
100
AcDbLine
 10
410.0968312608034
 20
194.3554643981136
 30
0.0
 11
409.8445582242102
 21
188.5774619137863
 31
0.0
  0
ARC
  5
1380
330
21
100
AcDbEntity
  8
截面层
100
AcDbCircle
 10
396.1544501803962
 20
499.6473193622729
 30
0.0
 40
313.1733938842268
100
AcDbArc
 50
270.3971426842234
 51
272.1588988424257
  0
ARC
  5
1381
102
{ACAD_REACTORS
330
14CD
102
}
330
21
100
AcDbEntity
  8
截面层
100
AcDbCircle
 10
384.3236086705898
 20
188.6633268495449
 30
0.0
 40
1.968503937007874
100
AcDbArc
 50
182.5000000000019
 51
267.8435851396364
  0
ARC
  5
1382
330
21
100
AcDbEntity
  8
截面层
100
AcDbCircle
 10
407.8779278667655
 20
188.6633268495448
 30
0.0
 40
1.968503937007874
100
AcDbArc
 50
272.1564148603635
 51
357.499999999998
  0
LINE
  5
1383
102
{ACAD_REACTORS
330
1395
102
}
330
21
100
AcDbEntity
  8
截面层
100
AcDbLine
 10
410.2936816545043
 20
195.4814486500819
 30
0.0
 11
411.0968312608036
 21
195.4814486500819
 31
0.0
  0
ARC
  5
1384
330
21
100
AcDbEntity
  8
截面层
100
AcDbCircle
 10
381.9078548828511
 20
195.2845982563811
 30
0.0
 40
0.1968503937007874
100
AcDbArc
 50
0.0
 51
90.0
  0
ARC
  5
1385
330
21
100
AcDbEntity
  8
截面层
100
AcDbCircle
 10
410.2936816545043
 20
195.2845982563811
 30
0.0
 40
0.1968503937007874
100
AcDbArc
 50
90.0
 51
180.0
  0
LINE
  5
1386
330
21
100
AcDbEntity
  8
0
100
AcDbLine
 10
381.9078548828511
 20
195.481448650082
 30
0.0
 11
410.2936816545043
 21
195.4814486500819
 31
0.0
  0
DIMENSION
  5
1387
102
{ACAD_XDICTIONARY
360
1388
102
}
102
{ACAD_REACTORS
330
1389
102
}
330
21
100
AcDbEntity
  8
标注
100
AcDbDimension
  2
*D117
 10
409.5937695585466
 20
156.220452190625
 30
0.0
 11
395.5977065664207
 21
156.220452190625
 31
0.0
 70
    32
 71
     5
 42
27.99212598425197
  3
副本Standard
100
AcDbAlignedDimension
 13
381.6016435742947
 23
163.7913254194082
 33
0.0
 14
409.5937695585466
 24
163.7913254194082
 34
0.0
100
AcDbRotatedDimension
  0
DIMENSION
  5
138A
102
{ACAD_XDICTIONARY
360
138B
102
}
102
{ACAD_REACTORS
330
138C
102
}
330
21
100
AcDbEntity
  8
标注
100
AcDbDimension
  2
*D118
 10
410.5937695585466
 20
153.8433612955626
 30
0.0
 11
395.5977065664206
 21
153.8433612955626
 31
0.0
 70
    32
 71
     5
 42
29.99212598425208
  3
副本Standard
100
AcDbAlignedDimension
 13
380.6016435742946
 23
163.7913254194082
 33
0.0
 14
410.5937695585466
 24
163.7913254194082
 34
0.0
100
AcDbRotatedDimension
  0
DIMENSION
  5
138D
102
{ACAD_XDICTIONARY
360
138E
102
}
102
{ACAD_REACTORS
330
138F
102
}
330
21
100
AcDbEntity
  8
标注
100
AcDbDimension
  2
*D119
 10
413.1259401452784
 20
159.8543175453925
 30
0.0
 11
413.1259401452784
 21
167.8858136083846
 31
0.0
 70
    32
 71
     5
 42
16.06299212598424
  3
副本Standard
100
AcDbAlignedDimension
 13
405.6567616845309
 23
175.9173096713767
 33
0.0
 14
405.6567616845309
 24
159.8543175453925
 34
0.0
 50
90.0
100
AcDbRotatedDimension
  0
DIMENSION
  5
1390
102
{ACAD_XDICTIONARY
360
1391
102
}
102
{ACAD_REACTORS
330
1392
102
}
330
21
100
AcDbEntity
  8
标注
100
AcDbDimension
  2
*D120
 10
415.7418762647339
 20
158.8543175453925
 30
0.0
 11
415.7418762647338
 21
167.8858136083846
 31
0.0
 70
    32
 71
     5
 42
18.06299212598424
  3
副本Standard
100
AcDbAlignedDimension
 13
405.6567616845308
 23
176.9173096713767
 33
0.0
 14
405.6567616845309
 24
158.8543175453925
 34
0.0
 50
90.0
100
AcDbRotatedDimension
  0
DIMENSION
  5
1393
102
{ACAD_XDICTIONARY
360
1394
102
}
102
{ACAD_REACTORS
330
1395
102
}
330
21
100
AcDbEntity
  8
标注
100
AcDbDimension
  2
*D121
 10
413.6328431756585
 20
186.4814486500874
 30
0.0
 11
413.6328431756584
 21
190.9814486500847
 31
0.0
 70
    32
 71
     5
 42
8.999999999994543
  3
副本Standard
100
AcDbAlignedDimension
 13
411.0968312608036
 23
195.4814486500819
 33
0.0
 14
402.8569493297014
 24
186.4814486500874
 34
0.0
 50
90.0
100
AcDbRotatedDimension
  0
CIRCLE
  5
1396
330
21
100
AcDbEntity
  8
0
100
AcDbCircle
 10
395.5977065664207
 20
167.8858136083846
 30
0.0
 40
2.165354330708661
  0
CIRCLE
  5
1397
330
21
100
AcDbEntity
  8
0
100
AcDbCircle
 10
395.5977065664207
 20
167.8858136083846
 30
0.0
 40
2.283464566929133
  0
CIRCLE
  5
1398
330
21
100
AcDbEntity
  8
0
100
AcDbCircle
 10
395.5977065664207
 20
167.8858136083846
 30
0.0
 40
1.771653543307086
  0
MTEXT
  5
14A9
330
21
100
AcDbEntity
  8
标注
 48
5.0
100
AcDbMText
 10
392.031926281265
 20
150.195447522724
 30
0.0
 40
0.7874015748031497
 41
15.1555422233215
 71
     1
 72
     5
  1
{\fArial|b0|i0|c0|p32;OVERHEAD VIEW}
 73
     1
 44
1.0
  0
MTEXT
  5
14AA
330
21
100
AcDbEntity
  8
标注
 48
5.0
100
AcDbMText
 10
392.8115178419368
 20
183.5638281796567
 30
0.0
 40
0.7874015748031497
 41
15.1555422233215
 71
     1
 72
     5
  1
{\fArial|b0|i0|c0|p32;FRONT VIEW }
 73
     1
 44
1.0
  0
DIMENSION
  5
14AE
102
{ACAD_XDICTIONARY
360
14B7
102
}
102
{ACAD_REACTORS
330
14BD
102
}
330
21
100
AcDbEntity
  8
标注
100
AcDbDimension
  2
*D123
 10
385.5386514483104
 20
171.9803017973608
 30
0.0
 11
385.2572270954425
 21
172.2336686092637
 31
0.0
 70
   164
 71
     5
 42
3.937007874015705
  3
副本Standard
100
AcDbRadialDimension
 15
382.612735459387
 25
174.6145088176659
 35
0.0
 40
0.0
1001
ACAD
1000
DSTYLE
1002
{
1070
   288
1070
     1
1002
}
  0
DIMENSION
  5
14BE
102
{ACAD_XDICTIONARY
360
14C7
102
}
102
{ACAD_REACTORS
330
14CD
102
}
330
21
100
AcDbEntity
  8
标注
100
AcDbDimension
  2
*D124
 10
384.3236086705899
 20
188.663326849545
 30
0.0
 11
384.5451478347324
 21
188.8501997414403
 31
0.0
 70
   164
 71
     5
 42
1.968503937008051
  3
副本Standard
100
AcDbRadialDimension
 15
382.818927908924
 25
187.3940973370105
 35
0.0
 40
0.0
1001
ACAD
1000
DSTYLE
1002
{
1070
   288
1070
     1
1002
}
  0
LINE
  5
14DC
330
21
100
AcDbEntity
  8
0
100
AcDbLine
 10
394.3306210703945
 20
186.284598256381
 30
0.0
 11
397.8709154669618
 21
186.284598256381
 31
0.0
  0
LINE
  5
14DD
330
21
100
AcDbEntity
  8
截面层
100
AcDbLine
 10
397.8709154669618
 20
186.284598256381
 30
0.0
 11
398.2191624696998
 21
186.284598256381
 31
0.0
  0
LINE
  5
14DE
330
21
100
AcDbEntity
  8
截面层
100
AcDbLine
 10
393.876358819859
 20
186.4814486500819
 30
0.0
 11
394.0293137284681
 21
186.284598256381
 31
0.0
  0
LINE
  5
14DF
330
21
100
AcDbEntity
  8
截面层
100
AcDbLine
 10
394.0293137284681
 20
186.284598256381
 30
0.0
 11
394.3306210703945
 21
186.284598256381
 31
0.0
  0
LINE
  5
14E0
330
21
100
AcDbEntity
  8
截面层
100
AcDbLine
 10
398.2191624696998
 20
186.284598256381
 30
0.0
 11
398.3251777174968
 21
186.4814486500819
 31
0.0
  0
LINE
  5
14E1
330
21
100
AcDbEntity
  8
0
100
AcDbLine
 10
393.876358819859
 20
186.4814486500819
 30
0.0
 11
398.3251777174968
 21
186.4814486500819
 31
0.0
  0
LINE
  5
14E2
330
21
100
AcDbEntity
  8
中心线
 48
0.1
100
AcDbLine
 10
396.1007682686784
 20
189.6560315127015
 30
0.0
 11
396.1007682686778
 21
185.4316961991261
 31
0.0
  0
LINE
  5
14F1
330
21
100
AcDbEntity
  8
中心线
 48
0.1
100
AcDbLine
 10
395.5986520673377
 20
177.6125593850813
 30
0.0
 11
395.5986520673377
 21
158.2399181336429
 31
0.0
  0
LINE
  5
14F2
330
21
100
AcDbEntity
  8
中心线
 48
0.1
100
AcDbLine
 10
379.7221557475595
 20
167.8858136083846
 30
0.0
 11
411.2350829479155
 21
167.8858136083846
 31
0.0
  0
LINE
  5
154B
330
21
100
AcDbEntity
  8
中心线
 48
0.1
100
AcDbLine
 10
379.2190940453017
 20
127.0869930042086
 30
0.0
 11
410.7320212456577
 21
127.0869930042086
 31
0.0
  0
LINE
  5
154C
330
21
100
AcDbEntity
  8
中心线
 48
0.1
100
AcDbLine
 10
395.0955903650798
 20
136.8137387809054
 30
0.0
 11
395.0955903650798
 21
117.441097529467
 31
0.0
  0
CIRCLE
  5
1550
330
21
100
AcDbEntity
  8
0
100
AcDbCircle
 10
395.0946448641629
 20
127.0869930042086
 30
0.0
 40
1.771653543307086
  0
CIRCLE
  5
1551
330
21
100
AcDbEntity
  8
0
100
AcDbCircle
 10
395.0946448641629
 20
127.0869930042086
 30
0.0
 40
2.283464566929133
  0
CIRCLE
  5
1552
330
21
100
AcDbEntity
  8
0
100
AcDbCircle
 10
395.0946448641629
 20
127.0869930042086
 30
0.0
 40
2.165354330708661
  0
LWPOLYLINE
  5
155F
330
21
100
AcDbEntity
  8
0
100
AcDbPolyline
 90
        8
 70
     1
 43
0.0
 10
385.0355897460527
 20
136.1184890672008
 10
405.153699982273
 20
136.1184890672008
 42
-0.4142135623730951
 10
410.0907078562886
 20
131.181481193185
 10
410.0907078562888
 20
122.9925048152323
 42
-0.4142135623730951
 10
405.153699982273
 20
118.0554969412165
 10
385.0355897460527
 20
118.0554969412165
 42
-0.4142135623730958
 10
380.0985818720368
 20
122.9925048152322
 10
380.0985818720368
 20
131.181481193185
 42
-0.4142135623730951
  0
LWPOLYLINE
  5
1560
330
21
100
AcDbEntity
  8
截面层
 62
     1
 48
0.2
370
    35
100
AcDbPolyline
 90
        8
 70
     1
 43
0.0
 10
385.0355897460527
 20
135.1184890672008
 10
405.153699982273
 20
135.1184890672008
 42
-0.4142135623730951
 10
409.0907078562889
 20
131.181481193185
 10
409.0907078562889
 20
122.9925048152322
 42
-0.4142135623730951
 10
405.153699982273
 20
119.0554969412165
 10
385.0355897460527
 20
119.0554969412165
 42
-0.4142135623730951
 10
381.0985818720369
 20
122.9925048152322
 10
381.0985818720369
 20
131.181481193185
 42
-0.4142135623730951
  0
LINE
  5
15AD
330
21
100
AcDbEntity
  8
虚线
 62
     3
 48
0.3
370
    35
100
AcDbLine
 10
387.1664274781398
 20
112.5907820480989
 30
0.0
 11
393.3832324822238
 21
112.5907820480989
 31
0.0
  0
LINE
  5
15AE
330
21
100
AcDbEntity
  8
截面层
 62
     1
 48
0.2
370
    35
100
AcDbLine
 10
387.1664274781398
 20
110.622278111091
 30
0.0
 11
393.3832324822238
 21
110.622278111091
 31
0.0
  0
LINE
  5
15AF
330
21
100
AcDbEntity
  8
虚线
 62
    11
 48
0.15
370
    35
100
AcDbLine
 10
387.1664274781398
 20
108.6537741740831
 30
0.0
 11
393.3832324822238
 21
108.6537741740831
 31
0.0
  0
MTEXT
  5
15B0
330
21
100
AcDbEntity
  8
标注
 48
5.0
100
AcDbMText
 10
394.8318335587068
 20
113.1389469857097
 30
0.0
 40
0.7874015748031497
 41
15.1555422233215
 71
     1
 72
     5
  1
1/4" {\fArial|b0|i0|c0|p32;REVEAL CUTOUT}
 73
     1
 44
1.0
  0
MTEXT
  5
15B1
330
21
100
AcDbEntity
  8
标注
 48
5.0
100
AcDbMText
 10
394.8318335587064
 20
111.1704430487019
 30
0.0
 40
0.7874015748031497
 41
15.1555422233215
 71
     1
 72
     5
  1
{\fArial|b0|i0|c0|p32;FLUSH CUTOUT}
 73
     1
 44
1.0
  0
MTEXT
  5
15B2
330
21
100
AcDbEntity
  8
标注
 48
5.0
100
AcDbMText
 10
394.8318335587068
 20
109.2019391116939
 30
0.0
 40
0.7874015748031497
 41
15.1555422233215
 71
     1
 72
     5
  1
1/4" {\fArial|b0|i0|c0|p32;OVERHANG CUTOUT}
 73
     1
 44
1.0
  0
MTEXT
  5
15BC
330
21
100
AcDbEntity
  8
标注
 48
5.0
100
AcDbMText
 10
390.0225472696379
 20
77.82203782934427
 30
0.0
 40
0.7874015748031497
 41
15.1555422233215
 71
     1
 72
     5
  1
1/4" {\fArial|b0|i0|c0|p32;REVEAL CUTOUT}
 73
     1
 44
1.0
  0
MTEXT
  5
15BD
330
21
100
AcDbEntity
  8
标注
 48
5.0
100
AcDbMText
 10
391.3751942807253
 20
48.26709013021863
 30
0.0
 40
0.7874015748031497
 41
15.1555422233215
 71
     1
 72
     5
  1
{\fArial|b0|i0|c0|p32;FLUSH CUTOUT}
 73
     1
 44
1.0
  0
MTEXT
  5
15BE
330
21
100
AcDbEntity
  8
标注
 48
5.0
100
AcDbMText
 10
387.8331629087131
 20
18.56745087669745
 30
0.0
 40
0.7874015748031497
 41
15.1555422233215
 71
     1
 72
     5
  1
1/4" {\fArial|b0|i0|c0|p32;OVERHANG CUTOUT}
 73
     1
 44
1.0
  0
LWPOLYLINE
  5
15C1
330
21
100
AcDbEntity
  8
虚线
 62
     3
 48
0.3
370
    35
100
AcDbPolyline
 90
        8
 70
     1
 43
0.0
 10
385.0355897460527
 20
135.3684890672008
 10
405.153699982273
 20
135.3684890672008
 42
-0.4142135623730951
 10
409.3407078562888
 20
131.181481193185
 10
409.3407078562888
 20
122.9925048152322
 42
-0.4142135623730931
 10
405.153699982273
 20
118.8054969412165
 10
385.0355897460527
 20
118.8054969412165
 42
-0.4142135623730951
 10
380.8485818720369
 20
122.9925048152322
 10
380.8485818720369
 20
131.181481193185
 42
-0.4142135623730951
  0
LWPOLYLINE
  5
15C2
330
21
100
AcDbEntity
  8
虚线
 62
    11
 48
0.15
370
    35
100
AcDbPolyline
 90
        8
 70
     1
 43
0.0
 10
385.0355897460527
 20
134.8684890672008
 10
405.153699982273
 20
134.8684890672008
 42
-0.4142135623730951
 10
408.8407078562888
 20
131.181481193185
 10
408.8407078562888
 20
122.9925048152322
 42
-0.4142135623730951
 10
405.153699982273
 20
119.3054969412165
 10
385.0355897460527
 20
119.3054969412165
 42
-0.4142135623730951
 10
381.3485818720369
 20
122.9925048152322
 10
381.3485818720369
 20
131.181481193185
 42
-0.4142135623730951
  0
LWPOLYLINE
  5
15CB
330
21
100
AcDbEntity
  8
虚线
 62
     3
 48
0.3
370
    35
100
AcDbPolyline
 90
        8
 70
     1
 43
0.0
 10
386.0869675713358
 20
96.3958411229985
 10
406.2050778075562
 20
96.3958411229985
 42
-0.4142135623730951
 10
410.392085681572
 20
92.20883324898272
 10
410.392085681572
 20
84.01985687102998
 42
-0.4142135623730931
 10
406.2050778075562
 20
79.83284899701423
 10
386.0869675713358
 20
79.83284899701425
 42
-0.4142135623730951
 10
381.89995969732
 20
84.01985687102998
 10
381.89995969732
 20
92.20883324898272
 42
-0.4142135623730951
  0
LWPOLYLINE
  5
15D2
330
21
100
AcDbEntity
  8
截面层
 62
     1
 48
0.2
370
    35
100
AcDbPolyline
 90
        8
 70
     1
 43
0.0
 10
384.9886706187518
 20
66.90583506505004
 10
405.1067808549722
 20
66.90583506505004
 42
-0.4142135623730951
 10
409.043788728988
 20
62.96882719103428
 10
409.043788728988
 20
54.77985081308154
 42
-0.4142135623730951
 10
405.1067808549722
 20
50.84284293906581
 10
384.9886706187518
 20
50.84284293906581
 42
-0.4142135623730951
 10
381.0516627447361
 20
54.77985081308154
 10
381.0516627447361
 20
62.96882719103428
 42
-0.4142135623730951
  0
LWPOLYLINE
  5
15D9
330
21
100
AcDbEntity
  8
虚线
 62
    11
 48
0.15
370
    35
100
AcDbPolyline
 90
        8
 70
     1
 43
0.0
 10
384.4451991170135
 20
36.40888317344638
 10
404.5633093532339
 20
36.40888317344638
 42
-0.4142135623730951
 10
408.2503172272496
 20
32.72187529943062
 10
408.2503172272496
 20
24.53289892147788
 42
-0.4142135623730951
 10
404.5633093532339
 20
20.84589104746213
 10
384.4451991170135
 20
20.84589104746215
 42
-0.4142135623730951
 10
380.7581912429977
 20
24.53289892147788
 10
380.7581912429977
 20
32.72187529943062
 42
-0.4142135623730951
  0
ENDSEC
  0
SECTION
  2
OBJECTS
  0
DICTIONARY
  5
C
330
0
100
AcDbDictionary
281
     1
  3
ACAD_COLOR
350
1C
  3
ACAD_GROUP
350
D
  3
ACAD_LAYOUT
350
1A
  3
ACAD_MATERIAL
350
1B
  3
ACAD_MLINESTYLE
350
17
  3
ACAD_PLOTSETTINGS
350
19
  3
ACAD_PLOTSTYLENAME
350
E
  0
DICTIONARY
  5
C6
330
2
100
AcDbDictionary
280
     1
281
     1
  3
ACAD_LAYERFILTERS
360
4D2
  3
ACAD_LAYERSTATES
360
C7
  0
DICTIONARY
  5
1388
330
1387
100
AcDbDictionary
280
     1
281
     1
  3
ACAD_DIMASSOC
360
1389
  0
DICTIONARY
  5
138B
330
138A
100
AcDbDictionary
280
     1
281
     1
  3
ACAD_DIMASSOC
360
138C
  0
DICTIONARY
  5
138E
330
138D
100
AcDbDictionary
280
     1
281
     1
  3
ACAD_DIMASSOC
360
138F
  0
DICTIONARY
  5
1391
330
1390
100
AcDbDictionary
280
     1
281
     1
  3
ACAD_DIMASSOC
360
1392
  0
DICTIONARY
  5
1394
330
1393
100
AcDbDictionary
280
     1
281
     1
  3
ACAD_DIMASSOC
360
1395
  0
DICTIONARY
  5
14B7
330
14AE
100
AcDbDictionary
280
     1
281
     1
  3
ACAD_DIMASSOC
360
14BD
  0
DICTIONARY
  5
14C7
330
14BE
100
AcDbDictionary
280
     1
281
     1
  3
ACAD_DIMASSOC
360
14CD
  0
DICTIONARY
  5
1C
102
{ACAD_REACTORS
330
C
102
}
330
C
100
AcDbDictionary
281
     1
  0
DICTIONARY
  5
D
102
{ACAD_REACTORS
330
C
102
}
330
C
100
AcDbDictionary
281
     1
  0
DICTIONARY
  5
1A
102
{ACAD_REACTORS
330
C
102
}
330
C
100
AcDbDictionary
281
     1
  3
Model
350
24
  3
布局1
350
20
  3
布局2
350
28
  0
DICTIONARY
  5
1B
102
{ACAD_REACTORS
330
C
102
}
330
C
100
AcDbDictionary
281
     1
  0
DICTIONARY
  5
17
102
{ACAD_REACTORS
330
C
102
}
330
C
100
AcDbDictionary
281
     1
  3
Standard
350
18
  0
DICTIONARY
  5
19
102
{ACAD_REACTORS
330
C
102
}
330
C
100
AcDbDictionary
281
     1
  0
ACDBDICTIONARYWDFLT
  5
E
102
{ACAD_REACTORS
330
C
102
}
330
C
100
AcDbDictionary
281
     1
  3
Normal
350
F
100
AcDbDictionaryWithDefault
340
F
  0
DICTIONARY
  5
4D2
102
{ACAD_REACTORS
330
C6
102
}
330
C6
100
AcDbDictionary
281
     1
  0
DICTIONARY
  5
C7
102
{ACAD_REACTORS
330
C6
102
}
330
C6
100
AcDbDictionary
281
     1
  0
DIMASSOC
  5
1389
102
{ACAD_REACTORS
330
1388
102
}
330
1388
100
AcDbDimAssoc
330
1387
 90
        3
 70
     0
 71
     0
  1
AcDbOsnapPointRef
 72
     1
331
1372
 73
     2
 91
        6
 40
3.141592653589792
 10
0.0
 20
0.0
 30
2.000000000000000E+50
 75
     0
  1
AcDbOsnapPointRef
 72
     1
331
1372
 73
     2
 91
        3
 40
1.0
 10
0.0
 20
0.0
 30
2.000000000000000E+50
 75
     0
  0
DIMASSOC
  5
138C
102
{ACAD_REACTORS
330
138B
102
}
330
138B
100
AcDbDimAssoc
330
138A
 90
        3
 70
     0
 71
     0
  1
AcDbOsnapPointRef
 72
     1
331
1373
 73
     2
 91
        6
 40
3.141592653589797
 10
0.0
 20
0.0
 30
2.000000000000000E+50
 75
     0
  1
AcDbOsnapPointRef
 72
     1
331
1373
 73
     2
 91
        3
 40
1.0
 10
0.0
 20
0.0
 30
2.000000000000000E+50
 75
     0
  0
DIMASSOC
  5
138F
102
{ACAD_REACTORS
330
138E
102
}
330
138E
100
AcDbDimAssoc
330
138D
 90
        3
 70
     0
 71
     0
  1
AcDbOsnapPointRef
 72
    13
331
1372
 73
     2
 91
        2
 40
1.570796326794896
 10
0.0
 20
0.0
 30
2.000000000000000E+50
 75
     0
  1
AcDbOsnapPointRef
 72
     1
331
1372
 73
     2
 91
        4
 40
4.712388980384688
 10
0.0
 20
0.0
 30
2.000000000000000E+50
 75
     0
  0
DIMASSOC
  5
1392
102
{ACAD_REACTORS
330
1391
102
}
330
1391
100
AcDbDimAssoc
330
1390
 90
        3
 70
     0
 71
     0
  1
AcDbOsnapPointRef
 72
     5
331
1373
 73
     2
 91
        2
 40
7.853981633974482
 10
0.0
 20
0.0
 30
0.0
 75
     0
  1
AcDbOsnapPointRef
 72
     8
331
1373
 73
     2
 91
        4
 40
4.7123889803847
 10
0.0
 20
0.0
 30
0.0
 75
     1
  1
AcDbOsnapPointRef
 72
     5
331
1373
 73
     2
 91
        2
 40
7.853981633974482
 10
0.0
 20
0.0
 30
0.0
 75
     0
  0
DIMASSOC
  5
1395
102
{ACAD_REACTORS
330
1394
102
}
330
1394
100
AcDbDimAssoc
330
1393
 90
        1
 70
     0
 71
     0
  1
AcDbOsnapPointRef
 72
     1
331
1383
 73
     2
 91
        0
 40
1.0
 10
0.0
 20
0.0
 30
2.000000000000000E+50
 75
     0
  0
DIMASSOC
  5
14BD
102
{ACAD_REACTORS
330
14B7
102
}
330
14B7
100
AcDbDimAssoc
330
14AE
 90
        2
 70
     0
 71
     0
  1
AcDbOsnapPointRef
 72
     3
331
1372
 73
     2
 91
        8
 40
0.0
 10
0.0
 20
0.0
 30
0.0
 75
     0
  0
DIMASSOC
  5
14CD
102
{ACAD_REACTORS
330
14C7
102
}
330
14C7
100
AcDbDimAssoc
330
14BE
 90
        2
 70
     0
 71
     0
  1
AcDbOsnapPointRef
 72
     3
331
1381
 73
     2
 91
        0
 40
0.0
 10
0.0
 20
0.0
 30
0.0
 75
     0
  0
LAYOUT
  5
24
102
{ACAD_REACTORS
330
1A
102
}
330
1A
100
AcDbPlotSettings
  1

  2
Adobe PDF
  4
A4
  6

 40
3.174999952316282
 41
3.174999952316282
 42
3.175003051757812
 43
3.17498779296875
 44
209.9733276367186
 45
297.0318298339844
 46
48.39
 47
0.0
 48
357.8416769331207
 49
9.635089145515166
140
431.26035473207
141
209.3884886239014
142
1.0
143
0.6871891207343904
 70
 11956
 72
     1
 73
     0
 74
     4
  7
acad.ctb
 75
     0
147
1.455203480129767
 76
     0
 77
     2
 78
   300
148
-357.8416769331207
149
-9.635089145515166
100
AcDbLayout
  1
Model
 70
     1
 71
     0
 10
0.0
 20
0.0
 11
12.0
 21
9.0
 12
0.0
 22
0.0
 32
0.0
 14
0.0
 24
0.0
 34
0.0
 15
0.0
 25
0.0
 35
0.0
146
0.0
 13
0.0
 23
0.0
 33
0.0
 16
1.0
 26
0.0
 36
0.0
 17
0.0
 27
1.0
 37
0.0
 76
     0
330
21
  0
LAYOUT
  5
20
102
{ACAD_REACTORS
330
1A
102
}
330
1A
100
AcDbPlotSettings
  1

  2
FX DocuPrint 255-AP
  4

  6

 40
0.0
 41
0.0
 42
0.0
 43
0.0
 44
0.0
 45
0.0
 46
0.0
 47
0.0
 48
0.0
 49
0.0
140
0.0
141
0.0
142
1.0
143
1.0
 70
   688
 72
     0
 73
     0
 74
     5
  7
acad.ctb
 75
    16
147
1.0
 76
     0
 77
     2
 78
   300
148
0.0
149
0.0
100
AcDbLayout
  1
布局1
 70
     1
 71
     1
 10
0.0
 20
0.0
 11
12.0
 21
9.0
 12
0.0
 22
0.0
 32
0.0
 14
1.000000000000000E+20
 24
1.000000000000000E+20
 34
1.000000000000000E+20
 15
-1.000000000000000E+20
 25
-1.000000000000000E+20
 35
-1.000000000000000E+20
146
0.0
 13
0.0
 23
0.0
 33
0.0
 16
1.0
 26
0.0
 36
0.0
 17
0.0
 27
1.0
 37
0.0
 76
     0
330
1D
  0
LAYOUT
  5
28
102
{ACAD_REACTORS
330
1A
102
}
330
1A
100
AcDbPlotSettings
  1

  2
FX DocuPrint 255-AP
  4

  6

 40
0.0
 41
0.0
 42
0.0
 43
0.0
 44
0.0
 45
0.0
 46
0.0
 47
0.0
 48
0.0
 49
0.0
140
0.0
141
0.0
142
1.0
143
1.0
 70
   688
 72
     0
 73
     0
 74
     5
  7
acad.ctb
 75
    16
147
1.0
 76
     0
 77
     2
 78
   300
148
0.0
149
0.0
100
AcDbLayout
  1
布局2
 70
     1
 71
     2
 10
0.0
 20
0.0
 11
12.0
 21
9.0
 12
0.0
 22
0.0
 32
0.0
 14
0.0
 24
0.0
 34
0.0
 15
0.0
 25
0.0
 35
0.0
146
0.0
 13
0.0
 23
0.0
 33
0.0
 16
1.0
 26
0.0
 36
0.0
 17
0.0
 27
1.0
 37
0.0
 76
     0
330
25
  0
MLINESTYLE
  5
18
102
{ACAD_REACTORS
330
17
102
}
330
17
100
AcDbMlineStyle
  2
STANDARD
 70
     0
  3

 62
   256
 51
90.0
 52
90.0
 71
     2
 49
0.5
 62
   256
  6
BYLAYER
 49
-0.5
 62
   256
  6
BYLAYER
  0
ACDBPLACEHOLDER
  5
F
102
{ACAD_REACTORS
330
E
102
}
330
E
  0
ENDSEC
  0
EOF
